  0
SECTION
  2
HEADER
  9
$ACADVER
  1
AC1014
  9
$ACADMAINTVER
 70
     9
  9
$DWGCODEPAGE
  3
ANSI_932
  9
$INSBASE
 10
0.0
 20
0.0
 30
0.0
  9
$EXTMIN
 10
-140.1369605671345
 20
-648.5527163892434
 30
-0.0000000000000058
  9
$EXTMAX
 10
495.1138935970534
 20
246.5387597532699
 30
0.0000000000000104
  9
$LIMMIN
 10
-302.0
 20
-689.0
  9
$LIMMAX
 10
615.0
 20
462.0
  9
$ORTHOMODE
 70
     0
  9
$REGENMODE
 70
     1
  9
$FILLMODE
 70
     1
  9
$QTEXTMODE
 70
     0
  9
$MIRRTEXT
 70
     1
  9
$DRAGMODE
 70
     2
  9
$LTSCALE
 40
30.0
  9
$OSMODE
 70
    39
  9
$ATTMODE
 70
     1
  9
$TEXTSIZE
 40
5.0
  9
$TRACEWID
 40
0.05
  9
$TEXTSTYLE
  7
STANDARD1
  9
$CLAYER
  8
30
  9
$CELTYPE
  6
CONTINUOUS
  9
$CECOLOR
 62
   256
  9
$CELTSCALE
 40
1.0
  9
$DELOBJ
 70
     1
  9
$DISPSILH
 70
     0
  9
$DIMSCALE
 40
1.0
  9
$DIMASZ
 40
2.0
  9
$DIMEXO
 40
1.0
  9
$DIMDLI
 40
0.5
  9
$DIMRND
 40
0.0
  9
$DIMDLE
 40
0.0
  9
$DIMEXE
 40
0.5
  9
$DIMTP
 40
0.0
  9
$DIMTM
 40
0.0
  9
$DIMTXT
 40
5.0
  9
$DIMCEN
 40
0.09
  9
$DIMTSZ
 40
0.0
  9
$DIMTOL
 70
     0
  9
$DIMLIM
 70
     0
  9
$DIMTIH
 70
     0
  9
$DIMTOH
 70
     1
  9
$DIMSE1
 70
     0
  9
$DIMSE2
 70
     0
  9
$DIMTAD
 70
     3
  9
$DIMZIN
 70
    12
  9
$DIMBLK
  1
OPEN
  9
$DIMASO
 70
     1
  9
$DIMSHO
 70
     1
  9
$DIMPOST
  1

  9
$DIMAPOST
  1

  9
$DIMALT
 70
     0
  9
$DIMALTD
 70
     2
  9
$DIMALTF
 40
25.4
  9
$DIMLFAC
 40
1.0
  9
$DIMTOFL
 70
     0
  9
$DIMTVP
 40
0.0
  9
$DIMTIX
 70
     0
  9
$DIMSOXD
 70
     0
  9
$DIMSAH
 70
     0
  9
$DIMBLK1
  1

  9
$DIMBLK2
  1

  9
$DIMSTYLE
  2
STANDARD
  9
$DIMCLRD
 70
     0
  9
$DIMCLRE
 70
     0
  9
$DIMCLRT
 70
     0
  9
$DIMTFAC
 40
1.0
  9
$DIMGAP
 40
1.0
  9
$DIMJUST
 70
     0
  9
$DIMSD1
 70
     0
  9
$DIMSD2
 70
     0
  9
$DIMTOLJ
 70
     1
  9
$DIMTZIN
 70
     0
  9
$DIMALTZ
 70
     0
  9
$DIMALTTZ
 70
     0
  9
$DIMFIT
 70
     3
  9
$DIMUPT
 70
     0
  9
$DIMUNIT
 70
     2
  9
$DIMDEC
 70
     1
  9
$DIMTDEC
 70
     1
  9
$DIMALTU
 70
     2
  9
$DIMALTTD
 70
     2
  9
$DIMTXSTY
  7
STANDARD
  9
$DIMAUNIT
 70
     0
  9
$LUNITS
 70
     2
  9
$LUPREC
 70
     4
  9
$SKETCHINC
 40
0.1
  9
$FILLETRAD
 40
0.0
  9
$AUNITS
 70
     0
  9
$AUPREC
 70
     0
  9
$MENU
  1
.
  9
$ELEVATION
 40
0.0
  9
$PELEVATION
 40
0.0
  9
$THICKNESS
 40
0.0
  9
$LIMCHECK
 70
     0
  9
$BLIPMODE
 70
     0
  9
$CHAMFERA
 40
0.0
  9
$CHAMFERB
 40
0.0
  9
$CHAMFERC
 40
0.0
  9
$CHAMFERD
 40
0.0
  9
$SKPOLY
 70
     0
  9
$TDCREATE
 40
2452286.555658657
  9
$TDUPDATE
 40
2453635.772903275
  9
$TDINDWG
 40
1.3629112153
  9
$TDUSRTIMER
 40
1.3629108449
  9
$USRTIMER
 70
     1
  9
$ANGBASE
 50
0.0
  9
$ANGDIR
 70
     0
  9
$PDMODE
 70
     0
  9
$PDSIZE
 40
0.0
  9
$PLINEWID
 40
0.0
  9
$COORDS
 70
     1
  9
$SPLFRAME
 70
     0
  9
$SPLINETYPE
 70
     6
  9
$SPLINESEGS
 70
     8
  9
$ATTDIA
 70
     0
  9
$ATTREQ
 70
     1
  9
$HANDLING
 70
-16383
  9
$HANDSEED
  5
8BB9
  9
$SURFTAB1
 70
     6
  9
$SURFTAB2
 70
     6
  9
$SURFTYPE
 70
     6
  9
$SURFU
 70
     6
  9
$SURFV
 70
     6
  9
$UCSNAME
  2

  9
$UCSORG
 10
0.0
 20
0.0
 30
0.0
  9
$UCSXDIR
 10
1.0
 20
0.0
 30
0.0
  9
$UCSYDIR
 10
0.0
 20
1.0
 30
0.0
  9
$PUCSNAME
  2

  9
$PUCSORG
 10
0.0
 20
0.0
 30
0.0
  9
$PUCSXDIR
 10
1.0
 20
0.0
 30
0.0
  9
$PUCSYDIR
 10
0.0
 20
1.0
 30
0.0
  9
$USERI1
 70
     0
  9
$USERI2
 70
     0
  9
$USERI3
 70
     0
  9
$USERI4
 70
     0
  9
$USERI5
 70
     0
  9
$USERR1
 40
0.0
  9
$USERR2
 40
0.0
  9
$USERR3
 40
0.0
  9
$USERR4
 40
0.0
  9
$USERR5
 40
0.0
  9
$WORLDVIEW
 70
     1
  9
$SHADEDGE
 70
     3
  9
$SHADEDIF
 70
    70
  9
$TILEMODE
 70
     1
  9
$MAXACTVP
 70
    48
  9
$PINSBASE
 10
0.0
 20
0.0
 30
0.0
  9
$PLIMCHECK
 70
     0
  9
$PEXTMIN
 10
4.273573370203961
 20
5.205246163471485
 30
0.0
  9
$PEXTMAX
 10
194.6100952986349
 20
283.0697008572913
 30
0.0
  9
$PLIMMIN
 10
-5.873748779296875
 20
-5.873749732971191
  9
$PLIMMAX
 10
204.0995788574218
 20
291.1369009017943
  9
$UNITMODE
 70
     0
  9
$VISRETAIN
 70
     1
  9
$PLINEGEN
 70
     0
  9
$PSLTSCALE
 70
     1
  9
$TREEDEPTH
 70
  3020
  9
$PICKSTYLE
 70
     1
  9
$CMLSTYLE
  2
STANDARD
  9
$CMLJUST
 70
     0
  9
$CMLSCALE
 40
1.0
  9
$PROXYGRAPHICS
 70
     1
  9
$MEASUREMENT
 70
     0
  0
ENDSEC
  0
SECTION
  2
CLASSES
  0
CLASS
  1
ACDBDICTIONARYWDFLT
  2
AcDbDictionaryWithDefault
  3
AutoCAD 2000
 90
        0
280
     0
281
     0
  0
CLASS
  1
ACDBPLACEHOLDER
  2
AcDbPlaceHolder
  3
AutoCAD 2000
 90
        0
280
     0
281
     0
  0
CLASS
  1
LAYOUT
  2
AcDbLayout
  3
AutoCAD 2000
 90
        0
280
     0
281
     0
  0
CLASS
  1
LONG_TRANSACTION
  2
AcDbLongTransaction
  3
AutoCAD 2000
 90
        0
280
     0
281
     0
  0
CLASS
  1
LWPOLYLINE
  2
AcDbPolyline
  3
AutoCAD 2000
 90
        0
280
     0
281
     1
  0
CLASS
  1
HATCH
  2
AcDbHatch
  3
AutoCAD 2000
 90
        0
280
     0
281
     1
  0
CLASS
  1
XRECORD
  2
AcDbXrecord
  3
AutoCAD 2000
 90
        0
280
     0
281
     0
  0
CLASS
  1
LONG_TRANSACTION
  2
AcDbLongTransaction
  3
AutoCAD 2000
 90
        0
280
     0
281
     0
  0
CLASS
  1
LWPOLYLINE
  2
AcDbPolyline
  3
AutoCAD 2000
 90
        0
280
     0
281
     1
  0
CLASS
  1
HATCH
  2
AcDbHatch
  3
AutoCAD 2000
 90
        0
280
     0
281
     1
  0
CLASS
  1
XRECORD
  2
AcDbXrecord
  3
AutoCAD 2000
 90
        0
280
     0
281
     0
  0
CLASS
  1
LONG_TRANSACTION
  2
AcDbLongTransaction
  3
AutoCAD 2000
 90
        0
280
     0
281
     0
  0
CLASS
  1
LWPOLYLINE
  2
AcDbPolyline
  3
AutoCAD 2000
 90
        0
280
     0
281
     1
  0
CLASS
  1
HATCH
  2
AcDbHatch
  3
AutoCAD 2000
 90
        0
280
     0
281
     1
  0
CLASS
  1
XRECORD
  2
AcDbXrecord
  3
AutoCAD 2000
 90
        0
280
     0
281
     0
  0
CLASS
  1
LONG_TRANSACTION
  2
AcDbLongTransaction
  3
AutoCAD 2000
 90
        0
280
     0
281
     0
  0
CLASS
  1
LWPOLYLINE
  2
AcDbPolyline
  3
AutoCAD 2000
 90
        0
280
     0
281
     1
  0
CLASS
  1
HATCH
  2
AcDbHatch
  3
AutoCAD 2000
 90
        0
280
     0
281
     1
  0
CLASS
  1
XRECORD
  2
AcDbXrecord
  3
AutoCAD 2000
 90
        0
280
     0
281
     0
  0
CLASS
  1
LONG_TRANSACTION
  2
AcDbLongTransaction
  3
AutoCAD 2000
 90
        0
280
     0
281
     0
  0
CLASS
  1
LWPOLYLINE
  2
AcDbPolyline
  3
AutoCAD 2000
 90
        0
280
     0
281
     1
  0
CLASS
  1
HATCH
  2
AcDbHatch
  3
AutoCAD 2000
 90
        0
280
     0
281
     1
  0
CLASS
  1
XRECORD
  2
AcDbXrecord
  3
AutoCAD 2000
 90
        0
280
     0
281
     0
  0
CLASS
  1
LONG_TRANSACTION
  2
AcDbLongTransaction
  3
AutoCAD 2000
 90
        0
280
     0
281
     0
  0
CLASS
  1
LWPOLYLINE
  2
AcDbPolyline
  3
AutoCAD 2000
 90
        0
280
     0
281
     1
  0
CLASS
  1
HATCH
  2
AcDbHatch
  3
AutoCAD 2000
 90
        0
280
     0
281
     1
  0
CLASS
  1
XRECORD
  2
AcDbXrecord
  3
AutoCAD 2000
 90
        0
280
     0
281
     0
  0
CLASS
  1
LONG_TRANSACTION
  2
AcDbLongTransaction
  3
AutoCAD 2000
 90
        0
280
     0
281
     0
  0
CLASS
  1
LWPOLYLINE
  2
AcDbPolyline
  3
AutoCAD 2000
 90
        0
280
     0
281
     1
  0
CLASS
  1
HATCH
  2
AcDbHatch
  3
AutoCAD 2000
 90
        0
280
     0
281
     1
  0
CLASS
  1
XRECORD
  2
AcDbXrecord
  3
AutoCAD 2000
 90
        0
280
     0
281
     0
  0
CLASS
  1
LONG_TRANSACTION
  2
AcDbLongTransaction
  3
AutoCAD 2000
 90
        0
280
     0
281
     0
  0
CLASS
  1
LWPOLYLINE
  2
AcDbPolyline
  3
AutoCAD 2000
 90
        0
280
     0
281
     1
  0
CLASS
  1
HATCH
  2
AcDbHatch
  3
AutoCAD 2000
 90
        0
280
     0
281
     1
  0
CLASS
  1
XRECORD
  2
AcDbXrecord
  3
AutoCAD 2000
 90
        0
280
     0
281
     0
  0
CLASS
  1
LONG_TRANSACTION
  2
AcDbLongTransaction
  3
AutoCAD 2000
 90
        0
280
     0
281
     0
  0
CLASS
  1
LWPOLYLINE
  2
AcDbPolyline
  3
AutoCAD 2000
 90
        0
280
     0
281
     1
  0
CLASS
  1
HATCH
  2
AcDbHatch
  3
AutoCAD 2000
 90
        0
280
     0
281
     1
  0
CLASS
  1
XRECORD
  2
AcDbXrecord
  3
AutoCAD 2000
 90
        0
280
     0
281
     0
  0
CLASS
  1
LONG_TRANSACTION
  2
AcDbLongTransaction
  3
AutoCAD 2000
 90
        0
280
     0
281
     0
  0
CLASS
  1
LWPOLYLINE
  2
AcDbPolyline
  3
AutoCAD 2000
 90
        0
280
     0
281
     1
  0
CLASS
  1
HATCH
  2
AcDbHatch
  3
AutoCAD 2000
 90
        0
280
     0
281
     1
  0
CLASS
  1
XRECORD
  2
AcDbXrecord
  3
AutoCAD 2000
 90
        0
280
     0
281
     0
  0
CLASS
  1
LONG_TRANSACTION
  2
AcDbLongTransaction
  3
AutoCAD 2000
 90
        0
280
     0
281
     0
  0
CLASS
  1
LWPOLYLINE
  2
AcDbPolyline
  3
AutoCAD 2000
 90
        0
280
     0
281
     1
  0
CLASS
  1
HATCH
  2
AcDbHatch
  3
AutoCAD 2000
 90
        0
280
     0
281
     1
  0
CLASS
  1
XRECORD
  2
AcDbXrecord
  3
AutoCAD 2000
 90
        0
280
     0
281
     0
  0
CLASS
  1
LONG_TRANSACTION
  2
AcDbLongTransaction
  3
AutoCAD 2000
 90
        0
280
     0
281
     0
  0
CLASS
  1
LWPOLYLINE
  2
AcDbPolyline
  3
AutoCAD 2000
 90
        0
280
     0
281
     1
  0
CLASS
  1
HATCH
  2
AcDbHatch
  3
AutoCAD 2000
 90
        0
280
     0
281
     1
  0
CLASS
  1
XRECORD
  2
AcDbXrecord
  3
AutoCAD 2000
 90
        0
280
     0
281
     0
  0
CLASS
  1
LONG_TRANSACTION
  2
AcDbLongTransaction
  3
AutoCAD 2000
 90
        0
280
     0
281
     0
  0
CLASS
  1
LWPOLYLINE
  2
AcDbPolyline
  3
AutoCAD 2000
 90
        0
280
     0
281
     1
  0
CLASS
  1
HATCH
  2
AcDbHatch
  3
AutoCAD 2000
 90
        0
280
     0
281
     1
  0
CLASS
  1
XRECORD
  2
AcDbXrecord
  3
AutoCAD 2000
 90
        0
280
     0
281
     0
  0
CLASS
  1
LONG_TRANSACTION
  2
AcDbLongTransaction
  3
AutoCAD 2000
 90
        0
280
     0
281
     0
  0
CLASS
  1
LWPOLYLINE
  2
AcDbPolyline
  3
AutoCAD 2000
 90
        0
280
     0
281
     1
  0
CLASS
  1
HATCH
  2
AcDbHatch
  3
AutoCAD 2000
 90
        0
280
     0
281
     1
  0
CLASS
  1
XRECORD
  2
AcDbXrecord
  3
AutoCAD 2000
 90
        0
280
     0
281
     0
  0
CLASS
  1
LONG_TRANSACTION
  2
AcDbLongTransaction
  3
AutoCAD 2000
 90
        0
280
     0
281
     0
  0
CLASS
  1
LWPOLYLINE
  2
AcDbPolyline
  3
AutoCAD 2000
 90
        0
280
     0
281
     1
  0
CLASS
  1
HATCH
  2
AcDbHatch
  3
AutoCAD 2000
 90
        0
280
     0
281
     1
  0
CLASS
  1
XRECORD
  2
AcDbXrecord
  3
AutoCAD 2000
 90
        0
280
     0
281
     0
  0
CLASS
  1
LONG_TRANSACTION
  2
AcDbLongTransaction
  3
AutoCAD 2000
 90
        0
280
     0
281
     0
  0
CLASS
  1
LWPOLYLINE
  2
AcDbPolyline
  3
AutoCAD 2000
 90
        0
280
     0
281
     1
  0
CLASS
  1
HATCH
  2
AcDbHatch
  3
AutoCAD 2000
 90
        0
280
     0
281
     1
  0
CLASS
  1
XRECORD
  2
AcDbXrecord
  3
AutoCAD 2000
 90
        0
280
     0
281
     0
  0
CLASS
  1
LONG_TRANSACTION
  2
AcDbLongTransaction
  3
AutoCAD 2000
 90
        0
280
     0
281
     0
  0
CLASS
  1
LWPOLYLINE
  2
AcDbPolyline
  3
AutoCAD 2000
 90
        0
280
     0
281
     1
  0
CLASS
  1
HATCH
  2
AcDbHatch
  3
AutoCAD 2000
 90
        0
280
     0
281
     1
  0
CLASS
  1
XRECORD
  2
AcDbXrecord
  3
AutoCAD 2000
 90
        0
280
     0
281
     0
  0
CLASS
  1
LONG_TRANSACTION
  2
AcDbLongTransaction
  3
AutoCAD 2000
 90
        0
280
     0
281
     0
  0
CLASS
  1
LWPOLYLINE
  2
AcDbPolyline
  3
AutoCAD 2000
 90
        0
280
     0
281
     1
  0
CLASS
  1
HATCH
  2
AcDbHatch
  3
AutoCAD 2000
 90
        0
280
     0
281
     1
  0
CLASS
  1
XRECORD
  2
AcDbXrecord
  3
AutoCAD 2000
 90
        0
280
     0
281
     0
  0
CLASS
  1
LONG_TRANSACTION
  2
AcDbLongTransaction
  3
AutoCAD 2000
 90
        0
280
     0
281
     0
  0
CLASS
  1
LWPOLYLINE
  2
AcDbPolyline
  3
AutoCAD 2000
 90
        0
280
     0
281
     1
  0
CLASS
  1
HATCH
  2
AcDbHatch
  3
AutoCAD 2000
 90
        0
280
     0
281
     1
  0
CLASS
  1
XRECORD
  2
AcDbXrecord
  3
AutoCAD 2000
 90
        0
280
     0
281
     0
  0
CLASS
  1
LONG_TRANSACTION
  2
AcDbLongTransaction
  3
AutoCAD 2000
 90
        0
280
     0
281
     0
  0
CLASS
  1
LWPOLYLINE
  2
AcDbPolyline
  3
AutoCAD 2000
 90
        0
280
     0
281
     1
  0
CLASS
  1
HATCH
  2
AcDbHatch
  3
AutoCAD 2000
 90
        0
280
     0
281
     1
  0
CLASS
  1
XRECORD
  2
AcDbXrecord
  3
AutoCAD 2000
 90
        0
280
     0
281
     0
  0
CLASS
  1
LONG_TRANSACTION
  2
AcDbLongTransaction
  3
AutoCAD 2000
 90
        0
280
     0
281
     0
  0
CLASS
  1
LWPOLYLINE
  2
AcDbPolyline
  3
AutoCAD 2000
 90
        0
280
     0
281
     1
  0
CLASS
  1
HATCH
  2
AcDbHatch
  3
AutoCAD 2000
 90
        0
280
     0
281
     1
  0
CLASS
  1
XRECORD
  2
AcDbXrecord
  3
AutoCAD 2000
 90
        0
280
     0
281
     0
  0
CLASS
  1
LONG_TRANSACTION
  2
AcDbLongTransaction
  3
AutoCAD 2000
 90
        0
280
     0
281
     0
  0
CLASS
  1
LWPOLYLINE
  2
AcDbPolyline
  3
AutoCAD 2000
 90
        0
280
     0
281
     1
  0
CLASS
  1
HATCH
  2
AcDbHatch
  3
AutoCAD 2000
 90
        0
280
     0
281
     1
  0
CLASS
  1
XRECORD
  2
AcDbXrecord
  3
AutoCAD 2000
 90
        0
280
     0
281
     0
  0
CLASS
  1
LONG_TRANSACTION
  2
AcDbLongTransaction
  3
AutoCAD 2000
 90
        0
280
     0
281
     0
  0
CLASS
  1
LWPOLYLINE
  2
AcDbPolyline
  3
AutoCAD 2000
 90
        0
280
     0
281
     1
  0
CLASS
  1
HATCH
  2
AcDbHatch
  3
AutoCAD 2000
 90
        0
280
     0
281
     1
  0
CLASS
  1
XRECORD
  2
AcDbXrecord
  3
AutoCAD 2000
 90
        0
280
     0
281
     0
  0
CLASS
  1
LONG_TRANSACTION
  2
AcDbLongTransaction
  3
AutoCAD 2000
 90
        0
280
     0
281
     0
  0
CLASS
  1
LWPOLYLINE
  2
AcDbPolyline
  3
AutoCAD 2000
 90
        0
280
     0
281
     1
  0
CLASS
  1
HATCH
  2
AcDbHatch
  3
AutoCAD 2000
 90
        0
280
     0
281
     1
  0
CLASS
  1
XRECORD
  2
AcDbXrecord
  3
AutoCAD 2000
 90
        0
280
     0
281
     0
  0
CLASS
  1
LONG_TRANSACTION
  2
AcDbLongTransaction
  3
AutoCAD 2000
 90
        0
280
     0
281
     0
  0
CLASS
  1
LWPOLYLINE
  2
AcDbPolyline
  3
AutoCAD 2000
 90
        0
280
     0
281
     1
  0
CLASS
  1
HATCH
  2
AcDbHatch
  3
AutoCAD 2000
 90
        0
280
     0
281
     1
  0
CLASS
  1
XRECORD
  2
AcDbXrecord
  3
AutoCAD 2000
 90
        0
280
     0
281
     0
  0
CLASS
  1
LONG_TRANSACTION
  2
AcDbLongTransaction
  3
AutoCAD 2000
 90
        0
280
     0
281
     0
  0
CLASS
  1
LWPOLYLINE
  2
AcDbPolyline
  3
AutoCAD 2000
 90
        0
280
     0
281
     1
  0
CLASS
  1
HATCH
  2
AcDbHatch
  3
AutoCAD 2000
 90
        0
280
     0
281
     1
  0
CLASS
  1
XRECORD
  2
AcDbXrecord
  3
AutoCAD 2000
 90
        0
280
     0
281
     0
  0
CLASS
  1
LONG_TRANSACTION
  2
AcDbLongTransaction
  3
AutoCAD 2000
 90
        0
280
     0
281
     0
  0
CLASS
  1
LWPOLYLINE
  2
AcDbPolyline
  3
AutoCAD 2000
 90
        0
280
     0
281
     1
  0
CLASS
  1
HATCH
  2
AcDbHatch
  3
AutoCAD 2000
 90
        0
280
     0
281
     1
  0
CLASS
  1
XRECORD
  2
AcDbXrecord
  3
AutoCAD 2000
 90
        0
280
     0
281
     0
  0
CLASS
  1
LONG_TRANSACTION
  2
AcDbLongTransaction
  3
AutoCAD 2000
 90
        0
280
     0
281
     0
  0
CLASS
  1
LWPOLYLINE
  2
AcDbPolyline
  3
AutoCAD 2000
 90
        0
280
     0
281
     1
  0
CLASS
  1
HATCH
  2
AcDbHatch
  3
AutoCAD 2000
 90
        0
280
     0
281
     1
  0
CLASS
  1
XRECORD
  2
AcDbXrecord
  3
AutoCAD 2000
 90
        0
280
     0
281
     0
  0
CLASS
  1
LONG_TRANSACTION
  2
AcDbLongTransaction
  3
AutoCAD 2000
 90
        0
280
     0
281
     0
  0
CLASS
  1
LWPOLYLINE
  2
AcDbPolyline
  3
AutoCAD 2000
 90
        0
280
     0
281
     1
  0
CLASS
  1
HATCH
  2
AcDbHatch
  3
AutoCAD 2000
 90
        0
280
     0
281
     1
  0
CLASS
  1
XRECORD
  2
AcDbXrecord
  3
AutoCAD 2000
 90
        0
280
     0
281
     0
  0
CLASS
  1
LONG_TRANSACTION
  2
AcDbLongTransaction
  3
AutoCAD 2000
 90
        0
280
     0
281
     0
  0
CLASS
  1
LWPOLYLINE
  2
AcDbPolyline
  3
AutoCAD 2000
 90
        0
280
     0
281
     1
  0
CLASS
  1
HATCH
  2
AcDbHatch
  3
AutoCAD 2000
 90
        0
280
     0
281
     1
  0
CLASS
  1
XRECORD
  2
AcDbXrecord
  3
AutoCAD 2000
 90
        0
280
     0
281
     0
  0
CLASS
  1
LONG_TRANSACTION
  2
AcDbLongTransaction
  3
AutoCAD 2000
 90
        0
280
     0
281
     0
  0
CLASS
  1
LWPOLYLINE
  2
AcDbPolyline
  3
AutoCAD 2000
 90
        0
280
     0
281
     1
  0
CLASS
  1
HATCH
  2
AcDbHatch
  3
AutoCAD 2000
 90
        0
280
     0
281
     1
  0
CLASS
  1
XRECORD
  2
AcDbXrecord
  3
AutoCAD 2000
 90
        0
280
     0
281
     0
  0
CLASS
  1
LONG_TRANSACTION
  2
AcDbLongTransaction
  3
AutoCAD 2000
 90
        0
280
     0
281
     0
  0
CLASS
  1
LWPOLYLINE
  2
AcDbPolyline
  3
AutoCAD 2000
 90
        0
280
     0
281
     1
  0
CLASS
  1
HATCH
  2
AcDbHatch
  3
AutoCAD 2000
 90
        0
280
     0
281
     1
  0
CLASS
  1
XRECORD
  2
AcDbXrecord
  3
AutoCAD 2000
 90
        0
280
     0
281
     0
  0
CLASS
  1
LONG_TRANSACTION
  2
AcDbLongTransaction
  3
AutoCAD 2000
 90
        0
280
     0
281
     0
  0
CLASS
  1
LWPOLYLINE
  2
AcDbPolyline
  3
AutoCAD 2000
 90
        0
280
     0
281
     1
  0
CLASS
  1
HATCH
  2
AcDbHatch
  3
AutoCAD 2000
 90
        0
280
     0
281
     1
  0
CLASS
  1
XRECORD
  2
AcDbXrecord
  3
AutoCAD 2000
 90
        0
280
     0
281
     0
  0
CLASS
  1
DICTIONARYVAR
  2
AcDbDictionaryVar
  3
AutoCAD 2000
 90
        0
280
     0
281
     0
  0
CLASS
  1
LONG_TRANSACTION
  2
AcDbLongTransaction
  3
AutoCAD 2000
 90
        0
280
     0
281
     0
  0
CLASS
  1
LWPOLYLINE
  2
AcDbPolyline
  3
AutoCAD 2000
 90
        0
280
     0
281
     1
  0
CLASS
  1
HATCH
  2
AcDbHatch
  3
AutoCAD 2000
 90
        0
280
     0
281
     1
  0
CLASS
  1
XRECORD
  2
AcDbXrecord
  3
AutoCAD 2000
 90
        0
280
     0
281
     0
  0
CLASS
  1
LONG_TRANSACTION
  2
AcDbLongTransaction
  3
AutoCAD 2000
 90
        0
280
     0
281
     0
  0
CLASS
  1
LWPOLYLINE
  2
AcDbPolyline
  3
AutoCAD 2000
 90
        0
280
     0
281
     1
  0
CLASS
  1
HATCH
  2
AcDbHatch
  3
AutoCAD 2000
 90
        0
280
     0
281
     1
  0
CLASS
  1
XRECORD
  2
AcDbXrecord
  3
AutoCAD 2000
 90
        0
280
     0
281
     0
  0
CLASS
  1
LONG_TRANSACTION
  2
AcDbLongTransaction
  3
AutoCAD 2000
 90
        0
280
     0
281
     0
  0
CLASS
  1
LWPOLYLINE
  2
AcDbPolyline
  3
AutoCAD 2000
 90
        0
280
     0
281
     1
  0
CLASS
  1
HATCH
  2
AcDbHatch
  3
AutoCAD 2000
 90
        0
280
     0
281
     1
  0
CLASS
  1
XRECORD
  2
AcDbXrecord
  3
AutoCAD 2000
 90
        0
280
     0
281
     0
  0
CLASS
  1
LONG_TRANSACTION
  2
AcDbLongTransaction
  3
AutoCAD 2000
 90
        0
280
     0
281
     0
  0
CLASS
  1
LWPOLYLINE
  2
AcDbPolyline
  3
AutoCAD 2000
 90
        0
280
     0
281
     1
  0
CLASS
  1
HATCH
  2
AcDbHatch
  3
AutoCAD 2000
 90
        0
280
     0
281
     1
  0
CLASS
  1
XRECORD
  2
AcDbXrecord
  3
AutoCAD 2000
 90
        0
280
     0
281
     0
  0
CLASS
  1
LONG_TRANSACTION
  2
AcDbLongTransaction
  3
AutoCAD 2000
 90
        0
280
     0
281
     0
  0
CLASS
  1
LWPOLYLINE
  2
AcDbPolyline
  3
AutoCAD 2000
 90
        0
280
     0
281
     1
  0
CLASS
  1
HATCH
  2
AcDbHatch
  3
AutoCAD 2000
 90
        0
280
     0
281
     1
  0
CLASS
  1
XRECORD
  2
AcDbXrecord
  3
AutoCAD 2000
 90
        0
280
     0
281
     0
  0
ENDSEC
  0
SECTION
  2
TABLES
  0
TABLE
  2
VPORT
  5
8
330
0
100
AcDbSymbolTable
 70
     2
  0
VPORT
  5
8B95
330
8
100
AcDbSymbolTableRecord
100
AcDbViewportTableRecord
  2
*ACTIVE
 70
     0
 10
0.0
 20
0.0
 11
1.0
 21
1.0
 12
177.4884665149595
 22
-201.0069783179867
 13
0.0
 23
0.0
 14
1.0
 24
1.0
 15
10.0
 25
10.0
 16
0.0
 26
0.0
 36
1.0
 17
0.0
 27
0.0
 37
0.0
 40
902.5402262907173
 41
1.672222222222222
 42
50.0
 43
0.0
 44
0.0
 50
0.0
 51
0.0
 71
     0
 72
   100
 73
     1
 74
     1
 75
     1
 76
     0
 77
     0
 78
     0
  0
ENDTAB
  0
TABLE
  2
LTYPE
  5
5
330
0
100
AcDbSymbolTable
 70
     5
  0
LTYPE
  5
13
330
5
100
AcDbSymbolTableRecord
100
AcDbLinetypeTableRecord
  2
BYBLOCK
 70
     0
  3

 72
    65
 73
     0
 40
0.0
  0
LTYPE
  5
14
330
5
100
AcDbSymbolTableRecord
100
AcDbLinetypeTableRecord
  2
BYLAYER
 70
     0
  3

 72
    65
 73
     0
 40
0.0
  0
LTYPE
  5
15
330
5
100
AcDbSymbolTableRecord
100
AcDbLinetypeTableRecord
  2
CONTINUOUS
 70
     0
  3
Solid line
 72
    65
 73
     0
 40
0.0
  0
LTYPE
  5
22
330
5
100
AcDbSymbolTableRecord
100
AcDbLinetypeTableRecord
  2
CONTINOUS
 70
     0
  3
Solid line
 72
    65
 73
     0
 40
0.0
  0
LTYPE
  5
24
330
5
100
AcDbSymbolTableRecord
100
AcDbLinetypeTableRecord
  2
DASHDOT
 70
     0
  3
__ . __ . __ . __ . __ . __ . __ . __ . __ . __
 72
    65
 73
     4
 40
1.0
 49
0.5
 74
     0
 49
-0.25
 74
     0
 49
0.0
 74
     0
 49
-0.25
 74
     0
  0
LTYPE
  5
4C47
330
5
100
AcDbSymbolTableRecord
100
AcDbLinetypeTableRecord
  2
DIVIDE
 70
     0
  3
Divide ____ . . ____ . . ____ . . ____ . . ____
 72
    65
 73
     6
 40
1.25
 49
0.5
 74
     0
 49
-0.25
 74
     0
 49
0.0
 74
     0
 49
-0.25
 74
     0
 49
0.0
 74
     0
 49
-0.25
 74
     0
  0
LTYPE
  5
8483
330
5
100
AcDbSymbolTableRecord
100
AcDbLinetypeTableRecord
  2
PHANTOM
 70
     0
  3
_____ _ _ _____ _ _ _____ _ _ _____ _ _ ____
 72
    65
 73
     6
 40
2.5
 49
1.25
 74
     0
 49
-0.25
 74
     0
 49
0.25
 74
     0
 49
-0.25
 74
     0
 49
0.25
 74
     0
 49
-0.25
 74
     0
  0
ENDTAB
  0
TABLE
  2
LAYER
  5
2
330
0
100
AcDbSymbolTable
 70
    14
  0
LAYER
  5
10
330
2
100
AcDbSymbolTableRecord
100
AcDbLayerTableRecord
  2
0
 70
     0
 62
     7
  6
CONTINOUS
  0
LAYER
  5
2F
330
2
100
AcDbSymbolTableRecord
100
AcDbLayerTableRecord
  2
10
 70
     0
 62
     4
  6
CONTINOUS
  0
LAYER
  5
31
330
2
100
AcDbSymbolTableRecord
100
AcDbLayerTableRecord
  2
12
 70
     0
 62
     3
  6
CONTINOUS
  0
LAYER
  5
35
330
2
100
AcDbSymbolTableRecord
100
AcDbLayerTableRecord
  2
16
 70
     0
 62
     6
  6
DASHDOT
  0
LAYER
  5
38
330
2
100
AcDbSymbolTableRecord
100
AcDbLayerTableRecord
  2
19
 70
     0
 62
     7
  6
CONTINOUS
  0
LAYER
  5
3C
330
2
100
AcDbSymbolTableRecord
100
AcDbLayerTableRecord
  2
11
 70
     0
 62
     1
  6
CONTINOUS
  0
LAYER
  5
3D
330
2
100
AcDbSymbolTableRecord
100
AcDbLayerTableRecord
  2
24
 70
     0
 62
     2
  6
CONTINOUS
  0
LAYER
  5
3A2
330
2
100
AcDbSymbolTableRecord
100
AcDbLayerTableRecord
  2
30
 70
     0
 62
     9
  6
CONTINUOUS
  0
LAYER
  5
3A4
330
2
100
AcDbSymbolTableRecord
100
AcDbLayerTableRecord
  2
DEFPOINTS
 70
     0
 62
     7
  6
CONTINUOUS
  0
LAYER
  5
3BBA
330
2
100
AcDbSymbolTableRecord
100
AcDbLayerTableRecord
  2
18
 70
     0
 62
     5
  6
DIVIDE
  0
LAYER
  5
5797
330
2
100
AcDbSymbolTableRecord
100
AcDbLayerTableRecord
  2
L210_
 70
     0
 62
     7
  6
CONTINUOUS
  0
LAYER
  5
5D4D
330
2
100
AcDbSymbolTableRecord
100
AcDbLayerTableRecord
  2
17
 70
     0
 62
     2
  6
DASHDOT
  0
LAYER
  5
7355
330
2
100
AcDbSymbolTableRecord
100
AcDbLayerTableRecord
  2
1
 70
     0
 62
     7
  6
CONTINUOUS
  0
LAYER
  5
76A9
330
2
100
AcDbSymbolTableRecord
100
AcDbLayerTableRecord
  2
TOP
 70
     0
 62
     7
  6
CONTINUOUS
  0
ENDTAB
  0
TABLE
  2
STYLE
  5
3
330
0
100
AcDbSymbolTable
 70
     4
  0
STYLE
  5
11
330
3
100
AcDbSymbolTableRecord
100
AcDbTextStyleTableRecord
  2
STANDARD
 70
     0
 40
0.0
 41
1.0
 50
0.0
 71
     0
 42
2.0
  3
txt.shx
  4
bigfont.shx
  0
STYLE
  5
42
330
3
100
AcDbSymbolTableRecord
100
AcDbTextStyleTableRecord
  2
STANDARD1
 70
     0
 40
0.0
 41
1.0
 50
0.0
 71
     0
 42
5.0
  3
MONOTXT
  4
BIGFONT
  0
STYLE
  5
4F59
330
3
100
AcDbSymbolTableRecord
100
AcDbTextStyleTableRecord
  2
SYMBOL3
 70
     0
 40
0.0
 41
1.0
 50
0.0
 71
     0
 42
0.2
  3
iges1003
  4

  0
STYLE
  5
7356
330
3
100
AcDbSymbolTableRecord
100
AcDbTextStyleTableRecord
  2
UGMTXT
 70
     0
 40
0.0
 41
1.0
 50
0.0
 71
     0
 42
0.2
  3
ugmtxt
  4
bigfont
  0
ENDTAB
  0
TABLE
  2
VIEW
  5
6
330
0
100
AcDbSymbolTable
 70
     3
  0
VIEW
  5
230C
330
6
100
AcDbSymbolTableRecord
100
AcDbViewTableRecord
  2
OLE1
 70
     0
 40
148.9124878027714
 10
429.4976280407222
 20
2.560626997828478
 41
103.1458057716444
 11
0.0
 21
0.0
 31
1.0
 12
0.0
 22
0.0
 32
0.0
 42
50.0
 43
0.0
 44
0.0
 50
0.0
 71
     0
  0
VIEW
  5
230E
330
6
100
AcDbSymbolTableRecord
100
AcDbViewTableRecord
  2
OLE2
 70
     0
 40
170.7786920545775
 10
322.664969958371
 20
-5.978304054290276
 41
102.4672152327465
 11
0.0
 21
0.0
 31
1.0
 12
0.0
 22
0.0
 32
0.0
 42
50.0
 43
0.0
 44
0.0
 50
0.0
 71
     0
  0
VIEW
  5
23AA
330
6
100
AcDbSymbolTableRecord
100
AcDbViewTableRecord
  2
OLE3
 70
     0
 40
591.7897393182231
 10
84.79698158148218
 20
-46.09336010803995
 41
388.7920961799953
 11
0.0
 21
0.0
 31
1.0
 12
0.0
 22
0.0
 32
0.0
 42
50.0
 43
0.0
 44
0.0
 50
0.0
 71
     0
  0
ENDTAB
  0
TABLE
  2
UCS
  5
7
330
0
100
AcDbSymbolTable
 70
     0
  0
ENDTAB
  0
TABLE
  2
APPID
  5
9
330
0
100
AcDbSymbolTable
 70
     2
  0
APPID
  5
12
330
9
100
AcDbSymbolTableRecord
100
AcDbRegAppTableRecord
  2
ACAD
 70
     0
  0
APPID
  5
ECD
330
9
100
AcDbSymbolTableRecord
100
AcDbRegAppTableRecord
  2
CONTENTBLOCKICON
 70
     0
  0
ENDTAB
  0
TABLE
  2
DIMSTYLE
  5
A
330
0
100
AcDbSymbolTable
 70
     1
  0
DIMSTYLE
105
175
102
{ACAD_REACTORS
330
7DCD
330
7DDA
330
7DE7
330
7E0F
330
8323
330
834A
330
85DA
330
85DB
330
85E1
330
85EA
330
861A
330
89B3
330
89B4
330
89B5
330
89B6
330
89BD
330
89F9
330
899E
330
89A2
330
89A3
102
}
330
A
100
AcDbSymbolTableRecord
100
AcDbDimStyleTableRecord
  2
STANDARD
 70
     0
  3

  4

  5
OPEN
  6

  7

 40
1.0
 41
2.0
 42
1.0
 43
0.5
 44
0.5
 45
0.0
 46
0.0
 47
0.0
 48
0.0
140
5.0
141
0.09
142
0.0
143
25.4
144
1.0
145
0.0
146
1.0
147
1.0
 71
     0
 72
     0
 73
     0
 74
     1
 75
     0
 76
     0
 77
     3
 78
    12
170
     0
171
     2
172
     0
173
     0
174
     0
175
     0
176
     0
177
     0
178
     0
270
     2
271
     1
272
     1
273
     2
274
     2
340
11
275
     0
280
     0
281
     0
282
     0
283
     1
284
     0
285
     0
286
     0
287
     3
288
     0
  0
ENDTAB
  0
TABLE
  2
BLOCK_RECORD
  5
1
330
0
100
AcDbSymbolTable
 70
    24
  0
BLOCK_RECORD
  5
1E
102
{ACAD_XDICTIONARY
360
178
102
}
330
1
100
AcDbSymbolTableRecord
100
AcDbBlockTableRecord
  2
*MODEL_SPACE
  0
BLOCK_RECORD
  5
1A
102
{ACAD_XDICTIONARY
360
17A
102
}
330
1
100
AcDbSymbolTableRecord
100
AcDbBlockTableRecord
  2
*PAPER_SPACE
  0
BLOCK_RECORD
  5
3B2
330
1
100
AcDbSymbolTableRecord
100
AcDbBlockTableRecord
  2
_OPEN
  0
BLOCK_RECORD
  5
7DCE
330
1
100
AcDbSymbolTableRecord
100
AcDbBlockTableRecord
  2
*D1
  0
BLOCK_RECORD
  5
7DDB
330
1
100
AcDbSymbolTableRecord
100
AcDbBlockTableRecord
  2
*D2
  0
BLOCK_RECORD
  5
7DE8
330
1
100
AcDbSymbolTableRecord
100
AcDbBlockTableRecord
  2
*D3
  0
BLOCK_RECORD
  5
7E10
330
1
100
AcDbSymbolTableRecord
100
AcDbBlockTableRecord
  2
*D4
  0
BLOCK_RECORD
  5
8324
330
1
100
AcDbSymbolTableRecord
100
AcDbBlockTableRecord
  2
*D5
  0
BLOCK_RECORD
  5
8331
330
1
100
AcDbSymbolTableRecord
100
AcDbBlockTableRecord
  2
*D6
  0
BLOCK_RECORD
  5
833E
330
1
100
AcDbSymbolTableRecord
100
AcDbBlockTableRecord
  2
*D7
  0
BLOCK_RECORD
  5
834B
330
1
100
AcDbSymbolTableRecord
100
AcDbBlockTableRecord
  2
*D8
  0
BLOCK_RECORD
  5
839C
330
1
100
AcDbSymbolTableRecord
100
AcDbBlockTableRecord
  2
*U9
  0
BLOCK_RECORD
  5
8638
330
1
100
AcDbSymbolTableRecord
100
AcDbBlockTableRecord
  2
*D10
  0
BLOCK_RECORD
  5
8644
330
1
100
AcDbSymbolTableRecord
100
AcDbBlockTableRecord
  2
*D11
  0
BLOCK_RECORD
  5
8650
330
1
100
AcDbSymbolTableRecord
100
AcDbBlockTableRecord
  2
*D12
  0
BLOCK_RECORD
  5
865C
330
1
100
AcDbSymbolTableRecord
100
AcDbBlockTableRecord
  2
*D13
  0
BLOCK_RECORD
  5
8669
330
1
100
AcDbSymbolTableRecord
100
AcDbBlockTableRecord
  2
*D14
  0
BLOCK_RECORD
  5
8A02
330
1
100
AcDbSymbolTableRecord
100
AcDbBlockTableRecord
  2
*D15
  0
BLOCK_RECORD
  5
8A0E
330
1
100
AcDbSymbolTableRecord
100
AcDbBlockTableRecord
  2
*D16
  0
BLOCK_RECORD
  5
8A1A
330
1
100
AcDbSymbolTableRecord
100
AcDbBlockTableRecord
  2
*D17
  0
BLOCK_RECORD
  5
8A26
330
1
100
AcDbSymbolTableRecord
100
AcDbBlockTableRecord
  2
*D18
  0
BLOCK_RECORD
  5
8A33
330
1
100
AcDbSymbolTableRecord
100
AcDbBlockTableRecord
  2
*D19
  0
BLOCK_RECORD
  5
8A3F
330
1
100
AcDbSymbolTableRecord
100
AcDbBlockTableRecord
  2
*D20
  0
BLOCK_RECORD
  5
8A4A
330
1
100
AcDbSymbolTableRecord
100
AcDbBlockTableRecord
  2
*D21
  0
BLOCK_RECORD
  5
8A56
330
1
100
AcDbSymbolTableRecord
100
AcDbBlockTableRecord
  2
*D22
  0
BLOCK_RECORD
  5
8A61
330
1
100
AcDbSymbolTableRecord
100
AcDbBlockTableRecord
  2
*D23
  0
ENDTAB
  0
ENDSEC
  0
SECTION
  2
BLOCKS
  0
BLOCK
  5
1F
330
1E
100
AcDbEntity
  8
0
100
AcDbBlockBegin
  2
*MODEL_SPACE
 70
     0
 10
0.0
 20
0.0
 30
0.0
  3
*MODEL_SPACE
  1

  0
ENDBLK
  5
20
330
1E
100
AcDbEntity
  8
0
100
AcDbBlockEnd
  0
BLOCK
  5
1B
330
1A
100
AcDbEntity
 67
     1
  8
0
100
AcDbBlockBegin
  2
*PAPER_SPACE
 70
     0
 10
0.0
 20
0.0
 30
0.0
  3
*PAPER_SPACE
  1

  0
ENDBLK
  5
1C
330
1A
100
AcDbEntity
 67
     1
  8
0
100
AcDbBlockEnd
  0
BLOCK
  5
3B6
330
3B2
100
AcDbEntity
  8
0
100
AcDbBlockBegin
  2
_OPEN
 70
     0
 10
0.0
 20
0.0
 30
0.0
  3
_OPEN
  1

  0
LINE
  5
3B3
330
3B2
100
AcDbEntity
  8
30
  6
CONTINUOUS
 62
     0
100
AcDbLine
 10
-1.0
 20
0.1666666666666666
 30
0.0
 11
0.0
 21
0.0
 31
0.0
  0
LINE
  5
3B4
330
3B2
100
AcDbEntity
  8
30
  6
CONTINUOUS
 62
     0
100
AcDbLine
 10
-1.0
 20
-0.1666666666666666
 30
0.0
 11
0.0
 21
0.0
 31
0.0
  0
LINE
  5
3B5
330
3B2
100
AcDbEntity
  8
30
  6
CONTINUOUS
 62
     0
100
AcDbLine
 10
0.0
 20
0.0
 30
0.0
 11
-1.0
 21
0.0
 31
0.0
  0
ENDBLK
  5
3B7
330
3B2
100
AcDbEntity
  8
0
100
AcDbBlockEnd
  0
BLOCK
  5
7DD8
330
7DCE
100
AcDbEntity
  8
0
100
AcDbBlockBegin
  2
*D1
 70
     1
 10
0.0
 20
0.0
 30
0.0
  3
*D1
  1

  0
LINE
  5
7E06
330
7DCE
100
AcDbEntity
  8
30
  6
CONTINUOUS
 62
     0
100
AcDbLine
 10
-71.0
 20
130.0
 30
0.0
 11
-90.49999999999995
 21
130.0
 31
0.0
  0
LINE
  5
7E07
330
7DCE
100
AcDbEntity
  8
30
  6
CONTINUOUS
 62
     0
100
AcDbLine
 10
-71.0
 20
-130.0
 30
0.0
 11
-90.5
 21
-130.0
 31
0.0
  0
LINE
  5
7E08
330
7DCE
100
AcDbEntity
  8
30
  6
CONTINUOUS
 62
     0
100
AcDbLine
 10
-89.99999999999994
 20
127.9999999999999
 30
0.0
 11
-90.0
 21
-128.0
 31
0.0
  0
INSERT
  5
7E09
330
7DCE
100
AcDbEntity
  8
30
  6
CONTINUOUS
 62
     0
100
AcDbBlockReference
  2
_OPEN
 10
-89.99999999999994
 20
130.0
 30
0.0
 41
2.0
 42
2.0
 43
2.0
 50
90.0
  0
INSERT
  5
7E0A
330
7DCE
100
AcDbEntity
  8
30
  6
CONTINUOUS
 62
     0
100
AcDbBlockReference
  2
_OPEN
 10
-90.0
 20
-130.0
 30
0.0
 41
2.0
 42
2.0
 43
2.0
 50
270.0
  0
MTEXT
  5
7E0B
330
7DCE
100
AcDbEntity
  8
30
  6
CONTINUOUS
 62
     0
100
AcDbMText
 10
-93.49999999999996
 20
-0.0000000000000793
 30
0.0
 40
5.0
 41
0.0
 71
     5
 72
     1
  1
\A1;260
 11
0.0000000000000001
 21
1.0
 31
0.0
1001
ACAD
1000
MTEXTBEGIN
1070
    73
1070
     1
1070
    44
1040
1.0
1070
    74
1070
     0
1000
MTEXTEND
1000
MTEXTBEGIN
1070
    73
1070
     1
1070
    44
1040
1.0
1070
    74
1070
     0
1000
MTEXTEND
1000
MTEXTBEGIN
1070
    73
1070
     1
1070
    44
1040
1.0
1070
    74
1070
     0
1000
MTEXTEND
  0
POINT
  5
7E0C
330
7DCE
100
AcDbEntity
  8
DEFPOINTS
  6
CONTINUOUS
 62
     0
100
AcDbPoint
 10
-70.0
 20
130.0
 30
0.0
  0
POINT
  5
7E0D
330
7DCE
100
AcDbEntity
  8
DEFPOINTS
  6
CONTINUOUS
 62
     0
100
AcDbPoint
 10
-70.0
 20
-130.0
 30
0.0
  0
POINT
  5
7E0E
330
7DCE
100
AcDbEntity
  8
DEFPOINTS
  6
CONTINUOUS
 62
     0
100
AcDbPoint
 10
-90.0
 20
-130.0
 30
0.0
  0
ENDBLK
  5
7DD9
330
7DCE
100
AcDbEntity
  8
0
100
AcDbBlockEnd
  0
BLOCK
  5
7DE5
330
7DDB
100
AcDbEntity
  8
0
100
AcDbBlockBegin
  2
*D2
 70
     1
 10
0.0
 20
0.0
 30
0.0
  3
*D2
  1

  0
LINE
  5
7DFD
330
7DDB
100
AcDbEntity
  8
30
  6
CONTINUOUS
 62
     0
100
AcDbLine
 10
-71.0
 20
143.0
 30
0.0
 11
-103.4999999999999
 21
143.0
 31
0.0
  0
LINE
  5
7DFE
330
7DDB
100
AcDbEntity
  8
30
  6
CONTINUOUS
 62
     0
100
AcDbLine
 10
-71.0
 20
-143.0
 30
0.0
 11
-103.4999999999999
 21
-143.0
 31
0.0
  0
LINE
  5
7DFF
330
7DDB
100
AcDbEntity
  8
30
  6
CONTINUOUS
 62
     0
100
AcDbLine
 10
-102.9999999999997
 20
141.0
 30
0.0
 11
-103.0
 21
-141.0
 31
0.0
  0
INSERT
  5
7E00
330
7DDB
100
AcDbEntity
  8
30
  6
CONTINUOUS
 62
     0
100
AcDbBlockReference
  2
_OPEN
 10
-102.9999999999997
 20
143.0
 30
0.0
 41
2.0
 42
2.0
 43
2.0
 50
90.0
  0
INSERT
  5
7E01
330
7DDB
100
AcDbEntity
  8
30
  6
CONTINUOUS
 62
     0
100
AcDbBlockReference
  2
_OPEN
 10
-103.0
 20
-143.0
 30
0.0
 41
2.0
 42
2.0
 43
2.0
 50
270.0
  0
MTEXT
  5
7E02
330
7DDB
100
AcDbEntity
  8
30
  6
CONTINUOUS
 62
     0
100
AcDbMText
 10
-106.4999999999999
 20
-0.0000000000000217
 30
0.0
 40
5.0
 41
0.0
 71
     5
 72
     1
  1
\A1;286
 11
0.0000000000000001
 21
1.0
 31
0.0
1001
ACAD
1000
MTEXTBEGIN
1070
    73
1070
     1
1070
    44
1040
1.0
1070
    74
1070
     0
1000
MTEXTEND
1000
MTEXTBEGIN
1070
    73
1070
     1
1070
    44
1040
1.0
1070
    74
1070
     0
1000
MTEXTEND
1000
MTEXTBEGIN
1070
    73
1070
     1
1070
    44
1040
1.0
1070
    74
1070
     0
1000
MTEXTEND
  0
POINT
  5
7E03
330
7DDB
100
AcDbEntity
  8
DEFPOINTS
  6
CONTINUOUS
 62
     0
100
AcDbPoint
 10
-70.0
 20
143.0
 30
0.0
  0
POINT
  5
7E04
330
7DDB
100
AcDbEntity
  8
DEFPOINTS
  6
CONTINUOUS
 62
     0
100
AcDbPoint
 10
-70.0
 20
-143.0
 30
0.0
  0
POINT
  5
7E05
330
7DDB
100
AcDbEntity
  8
DEFPOINTS
  6
CONTINUOUS
 62
     0
100
AcDbPoint
 10
-103.0
 20
-143.0
 30
0.0
  0
ENDBLK
  5
7DE6
330
7DDB
100
AcDbEntity
  8
0
100
AcDbBlockEnd
  0
BLOCK
  5
7DF2
330
7DE8
100
AcDbEntity
  8
0
100
AcDbBlockBegin
  2
*D3
 70
     1
 10
0.0
 20
0.0
 30
0.0
  3
*D3
  1

  0
LINE
  5
7DF4
330
7DE8
100
AcDbEntity
  8
30
  6
CONTINUOUS
 62
     0
100
AcDbLine
 10
-31.0
 20
157.4999999999995
 30
0.0
 11
-117.4999999999996
 21
157.4999999999999
 31
0.0
  0
LINE
  5
7DF5
330
7DE8
100
AcDbEntity
  8
30
  6
CONTINUOUS
 62
     0
100
AcDbLine
 10
-31.0
 20
-157.5
 30
0.0
 11
-117.5
 21
-157.4999999999999
 31
0.0
  0
LINE
  5
7DF6
330
7DE8
100
AcDbEntity
  8
30
  6
CONTINUOUS
 62
     0
100
AcDbLine
 10
-116.9999999999999
 20
155.4999999999999
 30
0.0
 11
-117.0
 21
-155.4999999999999
 31
0.0
  0
INSERT
  5
7DF7
330
7DE8
100
AcDbEntity
  8
30
  6
CONTINUOUS
 62
     0
100
AcDbBlockReference
  2
_OPEN
 10
-116.9999999999999
 20
157.4999999999999
 30
0.0
 41
2.0
 42
2.0
 43
2.0
 50
90.0
  0
INSERT
  5
7DF8
330
7DE8
100
AcDbEntity
  8
30
  6
CONTINUOUS
 62
     0
100
AcDbBlockReference
  2
_OPEN
 10
-117.0
 20
-157.4999999999999
 30
0.0
 41
2.0
 42
2.0
 43
2.0
 50
270.0
  0
MTEXT
  5
7DF9
330
7DE8
100
AcDbEntity
  8
30
  6
CONTINUOUS
 62
     0
100
AcDbMText
 10
-120.4999999999996
 20
-0.0000000000000493
 30
0.0
 40
5.0
 41
0.0
 71
     5
 72
     1
  1
\A1;315
 11
0.0000000000000001
 21
1.0
 31
0.0
1001
ACAD
1000
MTEXTBEGIN
1070
    73
1070
     1
1070
    44
1040
1.0
1070
    74
1070
     0
1000
MTEXTEND
1000
MTEXTBEGIN
1070
    73
1070
     1
1070
    44
1040
1.0
1070
    74
1070
     0
1000
MTEXTEND
1000
MTEXTBEGIN
1070
    73
1070
     1
1070
    44
1040
1.0
1070
    74
1070
     0
1000
MTEXTEND
  0
POINT
  5
7DFA
330
7DE8
100
AcDbEntity
  8
DEFPOINTS
  6
CONTINUOUS
 62
     0
100
AcDbPoint
 10
-30.0
 20
157.4999999999995
 30
0.0
  0
POINT
  5
7DFB
330
7DE8
100
AcDbEntity
  8
DEFPOINTS
  6
CONTINUOUS
 62
     0
100
AcDbPoint
 10
-30.0
 20
-157.5
 30
0.0
  0
POINT
  5
7DFC
330
7DE8
100
AcDbEntity
  8
DEFPOINTS
  6
CONTINUOUS
 62
     0
100
AcDbPoint
 10
-117.0
 20
-157.4999999999999
 30
0.0
  0
ENDBLK
  5
7DF3
330
7DE8
100
AcDbEntity
  8
0
100
AcDbBlockEnd
  0
BLOCK
  5
7E1A
330
7E10
100
AcDbEntity
  8
0
100
AcDbBlockBegin
  2
*D4
 70
     1
 10
0.0
 20
0.0
 30
0.0
  3
*D4
  1

  0
LINE
  5
8404
330
7E10
100
AcDbEntity
  8
30
  6
CONTINUOUS
 62
     0
100
AcDbLine
 10
-70.0
 20
-144.0
 30
0.0
 11
-70.0
 21
-176.5
 31
0.0
  0
LINE
  5
8405
330
7E10
100
AcDbEntity
  8
30
  6
CONTINUOUS
 62
     0
100
AcDbLine
 10
70.0
 20
-144.0
 30
0.0
 11
70.0
 21
-176.5
 31
0.0
  0
LINE
  5
8406
330
7E10
100
AcDbEntity
  8
30
  6
CONTINUOUS
 62
     0
100
AcDbLine
 10
-68.0
 20
-176.0
 30
0.0
 11
68.0
 21
-176.0
 31
0.0
  0
INSERT
  5
8407
330
7E10
100
AcDbEntity
  8
30
  6
CONTINUOUS
 62
     0
100
AcDbBlockReference
  2
_OPEN
 10
-70.0
 20
-176.0
 30
0.0
 41
2.0
 42
2.0
 43
2.0
 50
180.0
  0
INSERT
  5
8408
330
7E10
100
AcDbEntity
  8
30
  6
CONTINUOUS
 62
     0
100
AcDbBlockReference
  2
_OPEN
 10
70.0
 20
-176.0
 30
0.0
 41
2.0
 42
2.0
 43
2.0
  0
MTEXT
  5
8409
330
7E10
100
AcDbEntity
  8
30
  6
CONTINUOUS
 62
     0
100
AcDbMText
 10
0.0000000000000002
 20
-172.5
 30
0.0
 40
5.0
 41
0.0
 71
     5
 72
     1
  1
\A1;140
1001
ACAD
1000
MTEXTBEGIN
1070
    73
1070
     1
1070
    44
1040
1.0
1070
    74
1070
     0
1000
MTEXTEND
1000
MTEXTBEGIN
1070
    73
1070
     1
1070
    44
1040
1.0
1070
    74
1070
     0
1000
MTEXTEND
1000
MTEXTBEGIN
1070
    73
1070
     1
1070
    44
1040
1.0
1070
    74
1070
     0
1000
MTEXTEND
  0
POINT
  5
840A
330
7E10
100
AcDbEntity
  8
DEFPOINTS
  6
CONTINUOUS
 62
     0
100
AcDbPoint
 10
-70.0
 20
-143.0
 30
0.0
  0
POINT
  5
840B
330
7E10
100
AcDbEntity
  8
DEFPOINTS
  6
CONTINUOUS
 62
     0
100
AcDbPoint
 10
70.0
 20
-143.0
 30
0.0
  0
POINT
  5
840C
330
7E10
100
AcDbEntity
  8
DEFPOINTS
  6
CONTINUOUS
 62
     0
100
AcDbPoint
 10
70.0
 20
-176.0
 30
0.0
  0
ENDBLK
  5
7E1B
330
7E10
100
AcDbEntity
  8
0
100
AcDbBlockEnd
  0
BLOCK
  5
832E
330
8324
100
AcDbEntity
  8
0
100
AcDbBlockBegin
  2
*D5
 70
     1
 10
0.0
 20
0.0
 30
0.0
  3
*D5
  1

  0
LINE
  5
8325
330
8324
100
AcDbEntity
  8
30
  6
CONTINUOUS
 62
     0
100
AcDbLine
 10
-35.0
 20
-527.7499999999998
 30
0.0
 11
-35.0
 21
-648.5
 31
0.0
  0
LINE
  5
8326
330
8324
100
AcDbEntity
  8
30
  6
CONTINUOUS
 62
     0
100
AcDbLine
 10
35.0
 20
-527.7499999999998
 30
0.0
 11
34.99999999999999
 21
-648.5
 31
0.0
  0
LINE
  5
8327
330
8324
100
AcDbEntity
  8
30
  6
CONTINUOUS
 62
     0
100
AcDbLine
 10
-33.0
 20
-648.0
 30
0.0
 11
32.99999999999999
 21
-648.0
 31
0.0
  0
INSERT
  5
8328
330
8324
100
AcDbEntity
  8
30
  6
CONTINUOUS
 62
     0
100
AcDbBlockReference
  2
_OPEN
 10
-35.0
 20
-648.0
 30
0.0
 41
2.0
 42
2.0
 43
2.0
 50
180.0
  0
INSERT
  5
8329
330
8324
100
AcDbEntity
  8
30
  6
CONTINUOUS
 62
     0
100
AcDbBlockReference
  2
_OPEN
 10
34.99999999999999
 20
-648.0
 30
0.0
 41
2.0
 42
2.0
 43
2.0
  0
MTEXT
  5
832A
330
8324
100
AcDbEntity
  8
30
  6
CONTINUOUS
 62
     0
100
AcDbMText
 10
-0.0000000000000069
 20
-644.5
 30
0.0
 40
5.0
 41
0.0
 71
     5
 72
     1
  1
\A1;70
1001
ACAD
1000
MTEXTBEGIN
1070
    73
1070
     1
1070
    44
1040
1.0
1070
    74
1070
     0
1000
MTEXTEND
1000
MTEXTBEGIN
1070
    73
1070
     1
1070
    44
1040
1.0
1070
    74
1070
     0
1000
MTEXTEND
1000
MTEXTBEGIN
1070
    73
1070
     1
1070
    44
1040
1.0
1070
    74
1070
     0
1000
MTEXTEND
  0
POINT
  5
832B
330
8324
100
AcDbEntity
  8
DEFPOINTS
  6
CONTINUOUS
 62
     0
100
AcDbPoint
 10
-35.0
 20
-526.75
 30
0.0
  0
POINT
  5
832C
330
8324
100
AcDbEntity
  8
DEFPOINTS
  6
CONTINUOUS
 62
     0
100
AcDbPoint
 10
35.0
 20
-526.75
 30
0.0
  0
POINT
  5
832D
330
8324
100
AcDbEntity
  8
DEFPOINTS
  6
CONTINUOUS
 62
     0
100
AcDbPoint
 10
34.99999999999999
 20
-648.0
 30
0.0
  0
ENDBLK
  5
832F
330
8324
100
AcDbEntity
  8
0
100
AcDbBlockEnd
  0
BLOCK
  5
833B
330
8331
100
AcDbEntity
  8
0
100
AcDbBlockBegin
  2
*D6
 70
     1
 10
0.0
 20
0.0
 30
0.0
  3
*D6
  1

  0
LINE
  5
8332
330
8331
100
AcDbEntity
  8
30
  6
CONTINUOUS
 62
     0
100
AcDbLine
 10
-59.0
 20
-491.0
 30
0.0
 11
-59.00000000000001
 21
-661.5
 31
0.0
  0
LINE
  5
8333
330
8331
100
AcDbEntity
  8
30
  6
CONTINUOUS
 62
     0
100
AcDbLine
 10
58.99999999999995
 20
-491.0
 30
0.0
 11
58.99999999999994
 21
-661.5
 31
0.0
  0
LINE
  5
8334
330
8331
100
AcDbEntity
  8
30
  6
CONTINUOUS
 62
     0
100
AcDbLine
 10
-57.00000000000001
 20
-661.0
 30
0.0
 11
56.99999999999993
 21
-661.0
 31
0.0
  0
INSERT
  5
8335
330
8331
100
AcDbEntity
  8
30
  6
CONTINUOUS
 62
     0
100
AcDbBlockReference
  2
_OPEN
 10
-59.00000000000001
 20
-661.0
 30
0.0
 41
2.0
 42
2.0
 43
2.0
 50
180.0
  0
INSERT
  5
8336
330
8331
100
AcDbEntity
  8
30
  6
CONTINUOUS
 62
     0
100
AcDbBlockReference
  2
_OPEN
 10
58.99999999999994
 20
-661.0
 30
0.0
 41
2.0
 42
2.0
 43
2.0
  0
MTEXT
  5
8337
330
8331
100
AcDbEntity
  8
30
  6
CONTINUOUS
 62
     0
100
AcDbMText
 10
-0.0000000000000353
 20
-657.5
 30
0.0
 40
5.0
 41
0.0
 71
     5
 72
     1
  1
\A1;118
1001
ACAD
1000
MTEXTBEGIN
1070
    73
1070
     1
1070
    44
1040
1.0
1070
    74
1070
     0
1000
MTEXTEND
1000
MTEXTBEGIN
1070
    73
1070
     1
1070
    44
1040
1.0
1070
    74
1070
     0
1000
MTEXTEND
1000
MTEXTBEGIN
1070
    73
1070
     1
1070
    44
1040
1.0
1070
    74
1070
     0
1000
MTEXTEND
  0
POINT
  5
8338
330
8331
100
AcDbEntity
  8
DEFPOINTS
  6
CONTINUOUS
 62
     0
100
AcDbPoint
 10
-59.0
 20
-490.0
 30
0.0
  0
POINT
  5
8339
330
8331
100
AcDbEntity
  8
DEFPOINTS
  6
CONTINUOUS
 62
     0
100
AcDbPoint
 10
58.99999999999995
 20
-490.0
 30
0.0
  0
POINT
  5
833A
330
8331
100
AcDbEntity
  8
DEFPOINTS
  6
CONTINUOUS
 62
     0
100
AcDbPoint
 10
58.99999999999994
 20
-661.0
 30
0.0
  0
ENDBLK
  5
833C
330
8331
100
AcDbEntity
  8
0
100
AcDbBlockEnd
  0
BLOCK
  5
8348
330
833E
100
AcDbEntity
  8
0
100
AcDbBlockBegin
  2
*D7
 70
     1
 10
0.0
 20
0.0
 30
0.0
  3
*D7
  1

  0
LINE
  5
840E
330
833E
100
AcDbEntity
  8
30
  6
CONTINUOUS
 62
     0
100
AcDbLine
 10
53.99999999999995
 20
-404.0
 30
0.0
 11
89.50000000000008
 21
-404.0
 31
0.0
  0
LINE
  5
840F
330
833E
100
AcDbEntity
  8
30
  6
CONTINUOUS
 62
     0
100
AcDbLine
 10
53.99999999999995
 20
-496.0
 30
0.0
 11
89.50000000000006
 21
-496.0
 31
0.0
  0
LINE
  5
8410
330
833E
100
AcDbEntity
  8
30
  6
CONTINUOUS
 62
     0
100
AcDbLine
 10
89.00000000000011
 20
-406.0
 30
0.0
 11
89.00000000000003
 21
-494.0
 31
0.0
  0
INSERT
  5
8411
330
833E
100
AcDbEntity
  8
30
  6
CONTINUOUS
 62
     0
100
AcDbBlockReference
  2
_OPEN
 10
89.00000000000011
 20
-404.0
 30
0.0
 41
2.0
 42
2.0
 43
2.0
 50
90.0
  0
INSERT
  5
8412
330
833E
100
AcDbEntity
  8
30
  6
CONTINUOUS
 62
     0
100
AcDbBlockReference
  2
_OPEN
 10
89.00000000000003
 20
-496.0
 30
0.0
 41
2.0
 42
2.0
 43
2.0
 50
270.0
  0
MTEXT
  5
8413
330
833E
100
AcDbEntity
  8
30
  6
CONTINUOUS
 62
     0
100
AcDbMText
 10
85.50000000000014
 20
-450.0
 30
0.0
 40
5.0
 41
0.0
 71
     5
 72
     1
  1
\A1;92
 11
0.0000000000000001
 21
1.0
 31
0.0
1001
ACAD
1000
MTEXTBEGIN
1070
    73
1070
     1
1070
    44
1040
1.0
1070
    74
1070
     0
1000
MTEXTEND
1000
MTEXTBEGIN
1070
    73
1070
     1
1070
    44
1040
1.0
1070
    74
1070
     0
1000
MTEXTEND
1000
MTEXTBEGIN
1070
    73
1070
     1
1070
    44
1040
1.0
1070
    74
1070
     0
1000
MTEXTEND
  0
POINT
  5
8414
330
833E
100
AcDbEntity
  8
DEFPOINTS
  6
CONTINUOUS
 62
     0
100
AcDbPoint
 10
52.99999999999993
 20
-404.0
 30
0.0
  0
POINT
  5
8415
330
833E
100
AcDbEntity
  8
DEFPOINTS
  6
CONTINUOUS
 62
     0
100
AcDbPoint
 10
52.99999999999993
 20
-496.0
 30
0.0
  0
POINT
  5
8416
330
833E
100
AcDbEntity
  8
DEFPOINTS
  6
CONTINUOUS
 62
     0
100
AcDbPoint
 10
89.00000000000003
 20
-496.0
 30
0.0
  0
ENDBLK
  5
8349
330
833E
100
AcDbEntity
  8
0
100
AcDbBlockEnd
  0
BLOCK
  5
8355
330
834B
100
AcDbEntity
  8
0
100
AcDbBlockBegin
  2
*D8
 70
     1
 10
0.0
 20
0.0
 30
0.0
  3
*D8
  1

  0
LINE
  5
8417
330
834B
100
AcDbEntity
  8
30
  6
CONTINUOUS
 62
     0
100
AcDbLine
 10
42.75
 20
-380.0
 30
0.0
 11
110.4999999999999
 21
-380.0
 31
0.0
  0
LINE
  5
8418
330
834B
100
AcDbEntity
  8
30
  6
CONTINUOUS
 62
     0
100
AcDbLine
 10
42.75
 20
-520.0
 30
0.0
 11
110.4999999999999
 21
-520.0
 31
0.0
  0
LINE
  5
8419
330
834B
100
AcDbEntity
  8
30
  6
CONTINUOUS
 62
     0
100
AcDbLine
 10
110.0
 20
-382.0
 30
0.0
 11
110.0
 21
-518.0
 31
0.0
  0
INSERT
  5
841A
330
834B
100
AcDbEntity
  8
30
  6
CONTINUOUS
 62
     0
100
AcDbBlockReference
  2
_OPEN
 10
110.0
 20
-380.0
 30
0.0
 41
2.0
 42
2.0
 43
2.0
 50
90.0
  0
INSERT
  5
841B
330
834B
100
AcDbEntity
  8
30
  6
CONTINUOUS
 62
     0
100
AcDbBlockReference
  2
_OPEN
 10
110.0
 20
-520.0
 30
0.0
 41
2.0
 42
2.0
 43
2.0
 50
270.0
  0
MTEXT
  5
841C
330
834B
100
AcDbEntity
  8
30
  6
CONTINUOUS
 62
     0
100
AcDbMText
 10
106.5000000000001
 20
-450.0
 30
0.0
 40
5.0
 41
0.0
 71
     5
 72
     1
  1
\A1;140
 11
0.0000000000000001
 21
1.0
 31
0.0
1001
ACAD
1000
MTEXTBEGIN
1070
    73
1070
     1
1070
    44
1040
1.0
1070
    74
1070
     0
1000
MTEXTEND
1000
MTEXTBEGIN
1070
    73
1070
     1
1070
    44
1040
1.0
1070
    74
1070
     0
1000
MTEXTEND
1000
MTEXTBEGIN
1070
    73
1070
     1
1070
    44
1040
1.0
1070
    74
1070
     0
1000
MTEXTEND
  0
POINT
  5
841D
330
834B
100
AcDbEntity
  8
DEFPOINTS
  6
CONTINUOUS
 62
     0
100
AcDbPoint
 10
41.74999999999999
 20
-380.0
 30
0.0
  0
POINT
  5
841E
330
834B
100
AcDbEntity
  8
DEFPOINTS
  6
CONTINUOUS
 62
     0
100
AcDbPoint
 10
41.74999999999999
 20
-520.0
 30
0.0
  0
POINT
  5
841F
330
834B
100
AcDbEntity
  8
DEFPOINTS
  6
CONTINUOUS
 62
     0
100
AcDbPoint
 10
110.0
 20
-520.0
 30
0.0
  0
ENDBLK
  5
8356
330
834B
100
AcDbEntity
  8
0
100
AcDbBlockEnd
  0
BLOCK
  5
83A1
330
839C
100
AcDbEntity
  8
TOP
  6
CONTINUOUS
 62
     3
100
AcDbBlockBegin
  2
*U9
 70
     1
 10
0.0
 20
0.0
 30
0.0
  3
*U9
  1

  0
LINE
  5
839D
330
839C
100
AcDbEntity
  8
1
  6
BYBLOCK
 62
     0
100
AcDbLine
 10
548.3527638488361
 20
74.64070630641497
 30
0.0
 11
522.3527638488361
 21
74.64070630641497
 31
0.0
  0
LINE
  5
839E
330
839C
100
AcDbEntity
  8
1
  6
BYBLOCK
 62
     0
100
AcDbLine
 10
517.8511961722488
 20
100.6647232036204
 30
0.0
 11
522.3527638488361
 21
74.64070630641497
 31
0.0
  0
SOLID
  5
839F
330
839C
100
AcDbEntity
  8
1
  6
BYBLOCK
 62
     0
100
AcDbTrace
 10
517.8511961722488
 20
100.6647232036204
 30
0.0
 11
518.5205443376235
 21
98.75080465810007
 31
0.0
 12
517.8636330166235
 22
98.63717382314177
 32
0.0
 13
517.8636330166235
 23
98.63717382314177
 33
0.0
  0
TEXT
  5
83A0
330
839C
100
AcDbEntity
  8
TOP
  6
BYBLOCK
 62
     0
100
AcDbText
 10
548.3527638488361
 20
73.14070629651499
 30
0.0
 40
3.000000019799997
  1
 
 41
1.189062500000023
  7
UGMTXT
100
AcDbText
  0
ENDBLK
  5
83A2
330
839C
100
AcDbEntity
  8
0
100
AcDbBlockEnd
  0
BLOCK
  5
8642
330
8638
100
AcDbEntity
  8
0
100
AcDbBlockBegin
  2
*D10
 70
     1
 10
0.0
 20
0.0
 30
0.0
  3
*D10
  1

  0
LINE
  5
8675
330
8638
100
AcDbEntity
  8
30
  6
CONTINUOUS
 62
     0
100
AcDbLine
 10
479.0
 20
114.0000000000005
 30
0.0
 11
495.1062902121223
 21
114.0000000000005
 31
0.0
  0
LINE
  5
8676
330
8638
100
AcDbEntity
  8
30
  6
CONTINUOUS
 62
     0
100
AcDbLine
 10
479.0
 20
-113.9999999999992
 30
0.0
 11
495.1062902121223
 21
-113.9999999999992
 31
0.0
  0
LINE
  5
8677
330
8638
100
AcDbEntity
  8
30
  6
CONTINUOUS
 62
     0
100
AcDbLine
 10
494.6062902121223
 20
112.0000000000006
 30
0.0
 11
494.6062902121223
 21
-111.9999999999992
 31
0.0
  0
INSERT
  5
8678
330
8638
100
AcDbEntity
  8
30
  6
CONTINUOUS
 62
     0
100
AcDbBlockReference
  2
_OPEN
 10
494.6062902121223
 20
114.0000000000005
 30
0.0
 41
2.0
 42
2.0
 43
2.0
 50
90.0
  0
INSERT
  5
8679
330
8638
100
AcDbEntity
  8
30
  6
CONTINUOUS
 62
     0
100
AcDbBlockReference
  2
_OPEN
 10
494.6062902121223
 20
-113.9999999999992
 30
0.0
 41
2.0
 42
2.0
 43
2.0
 50
270.0
  0
MTEXT
  5
867A
330
8638
100
AcDbEntity
  8
30
  6
CONTINUOUS
 62
     0
100
AcDbMText
 10
491.1062902121223
 20
0.0000000000008086
 30
0.0
 40
5.0
 41
0.0
 71
     5
 72
     1
  1
\A1;228
 11
0.0000000000000001
 21
1.0
 31
0.0
1001
ACAD
1000
MTEXTBEGIN
1070
    73
1070
     1
1070
    44
1040
1.0
1070
    74
1070
     0
1000
MTEXTEND
1000
MTEXTBEGIN
1070
    73
1070
     1
1070
    44
1040
1.0
1070
    74
1070
     0
1000
MTEXTEND
1000
MTEXTBEGIN
1070
    73
1070
     1
1070
    44
1040
1.0
1070
    74
1070
     0
1000
MTEXTEND
  0
POINT
  5
867B
330
8638
100
AcDbEntity
  8
DEFPOINTS
  6
CONTINUOUS
 62
     0
100
AcDbPoint
 10
478.0
 20
114.0000000000005
 30
0.0
  0
POINT
  5
867C
330
8638
100
AcDbEntity
  8
DEFPOINTS
  6
CONTINUOUS
 62
     0
100
AcDbPoint
 10
478.0
 20
-113.9999999999992
 30
0.0
  0
POINT
  5
867D
330
8638
100
AcDbEntity
  8
DEFPOINTS
  6
CONTINUOUS
 62
     0
100
AcDbPoint
 10
494.6062902121223
 20
-113.9999999999992
 30
0.0
  0
ENDBLK
  5
8643
330
8638
100
AcDbEntity
  8
0
100
AcDbBlockEnd
  0
BLOCK
  5
864E
330
8644
100
AcDbEntity
  8
0
100
AcDbBlockBegin
  2
*D11
 70
     1
 10
0.0
 20
0.0
 30
0.0
  3
*D11
  1

  0
LINE
  5
867E
330
8644
100
AcDbEntity
  8
30
  6
CONTINUOUS
 62
     0
100
AcDbLine
 10
226.0
 20
-52.0
 30
0.0
 11
226.0
 21
-171.5
 31
0.0
  0
LINE
  5
867F
330
8644
100
AcDbEntity
  8
30
  6
CONTINUOUS
 62
     0
100
AcDbLine
 10
414.0
 20
-158.4999999999999
 30
0.0
 11
414.0
 21
-171.5
 31
0.0
  0
LINE
  5
8680
330
8644
100
AcDbEntity
  8
30
  6
CONTINUOUS
 62
     0
100
AcDbLine
 10
228.0
 20
-171.0
 30
0.0
 11
412.0
 21
-171.0
 31
0.0
  0
INSERT
  5
8681
330
8644
100
AcDbEntity
  8
30
  6
CONTINUOUS
 62
     0
100
AcDbBlockReference
  2
_OPEN
 10
226.0
 20
-171.0
 30
0.0
 41
2.0
 42
2.0
 43
2.0
 50
180.0
  0
INSERT
  5
8682
330
8644
100
AcDbEntity
  8
30
  6
CONTINUOUS
 62
     0
100
AcDbBlockReference
  2
_OPEN
 10
414.0
 20
-171.0
 30
0.0
 41
2.0
 42
2.0
 43
2.0
  0
MTEXT
  5
8683
330
8644
100
AcDbEntity
  8
30
  6
CONTINUOUS
 62
     0
100
AcDbMText
 10
320.0
 20
-167.5
 30
0.0
 40
5.0
 41
0.0
 71
     5
 72
     1
  1
\A1;188
1001
ACAD
1000
MTEXTBEGIN
1070
    73
1070
     1
1070
    44
1040
1.0
1070
    74
1070
     0
1000
MTEXTEND
1000
MTEXTBEGIN
1070
    73
1070
     1
1070
    44
1040
1.0
1070
    74
1070
     0
1000
MTEXTEND
1000
MTEXTBEGIN
1070
    73
1070
     1
1070
    44
1040
1.0
1070
    74
1070
     0
1000
MTEXTEND
  0
POINT
  5
8684
330
8644
100
AcDbEntity
  8
DEFPOINTS
  6
CONTINUOUS
 62
     0
100
AcDbPoint
 10
226.0
 20
-51.0
 30
0.0
  0
POINT
  5
8685
330
8644
100
AcDbEntity
  8
DEFPOINTS
  6
CONTINUOUS
 62
     0
100
AcDbPoint
 10
414.0
 20
-157.5
 30
0.0
  0
POINT
  5
8686
330
8644
100
AcDbEntity
  8
DEFPOINTS
  6
CONTINUOUS
 62
     0
100
AcDbPoint
 10
414.0
 20
-171.0
 30
0.0
  0
ENDBLK
  5
864F
330
8644
100
AcDbEntity
  8
0
100
AcDbBlockEnd
  0
BLOCK
  5
865A
330
8650
100
AcDbEntity
  8
0
100
AcDbBlockBegin
  2
*D12
 70
     1
 10
0.0
 20
0.0
 30
0.0
  3
*D12
  1

  0
LINE
  5
8687
330
8650
100
AcDbEntity
  8
30
  6
CONTINUOUS
 62
     0
100
AcDbLine
 10
414.0
 20
-139.0
 30
0.0
 11
414.0
 21
-171.5
 31
0.0
  0
LINE
  5
8688
330
8650
100
AcDbEntity
  8
30
  6
CONTINUOUS
 62
     0
100
AcDbLine
 10
466.0
 20
-138.9999999999998
 30
0.0
 11
466.0
 21
-171.5
 31
0.0
  0
LINE
  5
8689
330
8650
100
AcDbEntity
  8
30
  6
CONTINUOUS
 62
     0
100
AcDbLine
 10
416.0
 20
-171.0
 30
0.0
 11
464.0
 21
-171.0
 31
0.0
  0
INSERT
  5
868A
330
8650
100
AcDbEntity
  8
30
  6
CONTINUOUS
 62
     0
100
AcDbBlockReference
  2
_OPEN
 10
414.0
 20
-171.0
 30
0.0
 41
2.0
 42
2.0
 43
2.0
 50
180.0
  0
INSERT
  5
868B
330
8650
100
AcDbEntity
  8
30
  6
CONTINUOUS
 62
     0
100
AcDbBlockReference
  2
_OPEN
 10
466.0
 20
-171.0
 30
0.0
 41
2.0
 42
2.0
 43
2.0
  0
MTEXT
  5
868C
330
8650
100
AcDbEntity
  8
30
  6
CONTINUOUS
 62
     0
100
AcDbMText
 10
440.0
 20
-167.5
 30
0.0
 40
5.0
 41
0.0
 71
     5
 72
     1
  1
\A1;52
1001
ACAD
1000
MTEXTBEGIN
1070
    73
1070
     1
1070
    44
1040
1.0
1070
    74
1070
     0
1000
MTEXTEND
1000
MTEXTBEGIN
1070
    73
1070
     1
1070
    44
1040
1.0
1070
    74
1070
     0
1000
MTEXTEND
1000
MTEXTBEGIN
1070
    73
1070
     1
1070
    44
1040
1.0
1070
    74
1070
     0
1000
MTEXTEND
  0
POINT
  5
868D
330
8650
100
AcDbEntity
  8
DEFPOINTS
  6
CONTINUOUS
 62
     0
100
AcDbPoint
 10
414.0
 20
-138.0
 30
0.0
  0
POINT
  5
868E
330
8650
100
AcDbEntity
  8
DEFPOINTS
  6
CONTINUOUS
 62
     0
100
AcDbPoint
 10
466.0
 20
-137.9999999999998
 30
0.0
  0
POINT
  5
868F
330
8650
100
AcDbEntity
  8
DEFPOINTS
  6
CONTINUOUS
 62
     0
100
AcDbPoint
 10
466.0
 20
-171.0
 30
0.0
  0
ENDBLK
  5
865B
330
8650
100
AcDbEntity
  8
0
100
AcDbBlockEnd
  0
BLOCK
  5
8667
330
865C
100
AcDbEntity
  8
0
100
AcDbBlockBegin
  2
*D13
 70
     1
 10
0.0
 20
0.0
 30
0.0
  3
*D13
  1

  0
LINE
  5
8690
330
865C
100
AcDbEntity
  8
30
  6
CONTINUOUS
 62
     0
100
AcDbLine
 10
466.0
 20
-139.9999999999998
 30
0.0
 11
466.0
 21
-171.5
 31
0.0
  0
LINE
  5
8691
330
865C
100
AcDbEntity
  8
30
  6
CONTINUOUS
 62
     0
100
AcDbLine
 10
470.0
 20
-119.999999999999
 30
0.0
 11
470.0
 21
-171.5
 31
0.0
  0
LINE
  5
8692
330
865C
100
AcDbEntity
  8
30
  6
CONTINUOUS
 62
     0
100
AcDbLine
 10
464.0
 20
-171.0
 30
0.0
 11
462.0
 21
-171.0
 31
0.0
  0
LINE
  5
8693
330
865C
100
AcDbEntity
  8
30
  6
CONTINUOUS
 62
     0
100
AcDbLine
 10
472.0
 20
-171.0
 30
0.0
 11
479.3333333333333
 21
-171.0
 31
0.0
  0
INSERT
  5
8694
330
865C
100
AcDbEntity
  8
30
  6
CONTINUOUS
 62
     0
100
AcDbBlockReference
  2
_OPEN
 10
466.0
 20
-171.0
 30
0.0
 41
2.0
 42
2.0
 43
2.0
  0
INSERT
  5
8695
330
865C
100
AcDbEntity
  8
30
  6
CONTINUOUS
 62
     0
100
AcDbBlockReference
  2
_OPEN
 10
470.0
 20
-171.0
 30
0.0
 41
2.0
 42
2.0
 43
2.0
 50
180.0
  0
MTEXT
  5
8696
330
865C
100
AcDbEntity
  8
30
  6
CONTINUOUS
 62
     0
100
AcDbMText
 10
476.6666666666666
 20
-167.5
 30
0.0
 40
5.0
 41
0.0
 71
     5
 72
     1
  1
\A1;4
1001
ACAD
1000
MTEXTBEGIN
1070
    73
1070
     1
1070
    44
1040
1.0
1070
    74
1070
     0
1000
MTEXTEND
1000
MTEXTBEGIN
1070
    73
1070
     1
1070
    44
1040
1.0
1070
    74
1070
     0
1000
MTEXTEND
1000
MTEXTBEGIN
1070
    73
1070
     1
1070
    44
1040
1.0
1070
    74
1070
     0
1000
MTEXTEND
  0
POINT
  5
8697
330
865C
100
AcDbEntity
  8
DEFPOINTS
  6
CONTINUOUS
 62
     0
100
AcDbPoint
 10
466.0
 20
-138.9999999999998
 30
0.0
  0
POINT
  5
8698
330
865C
100
AcDbEntity
  8
DEFPOINTS
  6
CONTINUOUS
 62
     0
100
AcDbPoint
 10
470.0
 20
-118.9999999999992
 30
0.0
  0
POINT
  5
8699
330
865C
100
AcDbEntity
  8
DEFPOINTS
  6
CONTINUOUS
 62
     0
100
AcDbPoint
 10
470.0
 20
-171.0
 30
0.0
  0
ENDBLK
  5
8668
330
865C
100
AcDbEntity
  8
0
100
AcDbBlockEnd
  0
BLOCK
  5
8673
330
8669
100
AcDbEntity
  8
0
100
AcDbBlockBegin
  2
*D14
 70
     1
 10
0.0
 20
0.0
 30
0.0
  3
*D14
  1

  0
LINE
  5
869A
330
8669
100
AcDbEntity
  8
30
  6
CONTINUOUS
 62
     0
100
AcDbLine
 10
467.0
 20
90.0
 30
0.0
 11
477.1062902121223
 21
90.0
 31
0.0
  0
LINE
  5
869B
330
8669
100
AcDbEntity
  8
30
  6
CONTINUOUS
 62
     0
100
AcDbLine
 10
467.0
 20
-90.0
 30
0.0
 11
477.1062902121223
 21
-90.0
 31
0.0
  0
LINE
  5
869C
330
8669
100
AcDbEntity
  8
30
  6
CONTINUOUS
 62
     0
100
AcDbLine
 10
476.6062902121223
 20
88.0
 30
0.0
 11
476.6062902121223
 21
-88.0
 31
0.0
  0
INSERT
  5
869D
330
8669
100
AcDbEntity
  8
30
  6
CONTINUOUS
 62
     0
100
AcDbBlockReference
  2
_OPEN
 10
476.6062902121223
 20
90.0
 30
0.0
 41
2.0
 42
2.0
 43
2.0
 50
90.0
  0
INSERT
  5
869E
330
8669
100
AcDbEntity
  8
30
  6
CONTINUOUS
 62
     0
100
AcDbBlockReference
  2
_OPEN
 10
476.6062902121223
 20
-90.0
 30
0.0
 41
2.0
 42
2.0
 43
2.0
 50
270.0
  0
MTEXT
  5
869F
330
8669
100
AcDbEntity
  8
30
  6
CONTINUOUS
 62
     0
100
AcDbMText
 10
473.1062902121223
 20
0.0000000000000707
 30
0.0
 40
5.0
 41
0.0
 71
     5
 72
     1
  1
\A1;180
 11
0.0000000000000001
 21
1.0
 31
0.0
1001
ACAD
1000
MTEXTBEGIN
1070
    73
1070
     1
1070
    44
1040
1.0
1070
    74
1070
     0
1000
MTEXTEND
1000
MTEXTBEGIN
1070
    73
1070
     1
1070
    44
1040
1.0
1070
    74
1070
     0
1000
MTEXTEND
1000
MTEXTBEGIN
1070
    73
1070
     1
1070
    44
1040
1.0
1070
    74
1070
     0
1000
MTEXTEND
  0
POINT
  5
86A0
330
8669
100
AcDbEntity
  8
DEFPOINTS
  6
CONTINUOUS
 62
     0
100
AcDbPoint
 10
466.0
 20
90.0
 30
0.0
  0
POINT
  5
86A1
330
8669
100
AcDbEntity
  8
DEFPOINTS
  6
CONTINUOUS
 62
     0
100
AcDbPoint
 10
466.0
 20
-90.0
 30
0.0
  0
POINT
  5
86A2
330
8669
100
AcDbEntity
  8
DEFPOINTS
  6
CONTINUOUS
 62
     0
100
AcDbPoint
 10
476.6062902121223
 20
-90.0
 30
0.0
  0
ENDBLK
  5
8674
330
8669
100
AcDbEntity
  8
0
100
AcDbBlockEnd
  0
BLOCK
  5
8A0C
330
8A02
100
AcDbEntity
  8
0
100
AcDbBlockBegin
  2
*D15
 70
     1
 10
0.0
 20
0.0
 30
0.0
  3
*D15
  1

  0
LINE
  5
8B72
330
8A02
100
AcDbEntity
  8
30
  6
CONTINUOUS
 62
     0
100
AcDbLine
 10
287.0000000000003
 20
-464.5
 30
0.0
 11
287.0000000000003
 21
-502.6666666666667
 31
0.0
  0
LINE
  5
8B73
330
8A02
100
AcDbEntity
  8
30
  6
CONTINUOUS
 62
     0
100
AcDbLine
 10
323.0000000000003
 20
-445.4999999999993
 30
0.0
 11
323.0000000000003
 21
-502.6666666666667
 31
0.0
  0
LINE
  5
8B74
330
8A02
100
AcDbEntity
  8
30
  6
CONTINUOUS
 62
     0
100
AcDbLine
 10
289.0000000000003
 20
-502.1666666666667
 30
0.0
 11
321.0000000000003
 21
-502.1666666666667
 31
0.0
  0
INSERT
  5
8B75
330
8A02
100
AcDbEntity
  8
30
  6
CONTINUOUS
 62
     0
100
AcDbBlockReference
  2
_OPEN
 10
287.0000000000003
 20
-502.1666666666667
 30
0.0
 41
2.0
 42
2.0
 43
2.0
 50
180.0
  0
INSERT
  5
8B76
330
8A02
100
AcDbEntity
  8
30
  6
CONTINUOUS
 62
     0
100
AcDbBlockReference
  2
_OPEN
 10
323.0000000000003
 20
-502.1666666666667
 30
0.0
 41
2.0
 42
2.0
 43
2.0
  0
MTEXT
  5
8B77
330
8A02
100
AcDbEntity
  8
30
  6
CONTINUOUS
 62
     0
100
AcDbMText
 10
305.0000000000003
 20
-498.6666666666667
 30
0.0
 40
5.0
 41
0.0
 71
     5
 72
     1
  1
\A1;36
1001
ACAD
1000
MTEXTBEGIN
1070
    73
1070
     1
1070
    44
1040
1.0
1070
    74
1070
     0
1000
MTEXTEND
  0
POINT
  5
8B78
330
8A02
100
AcDbEntity
  8
DEFPOINTS
  6
CONTINUOUS
 62
     0
100
AcDbPoint
 10
287.0000000000003
 20
-463.4999999999999
 30
0.0
  0
POINT
  5
8B79
330
8A02
100
AcDbEntity
  8
DEFPOINTS
  6
CONTINUOUS
 62
     0
100
AcDbPoint
 10
323.0000000000003
 20
-444.4999999999994
 30
0.0
  0
POINT
  5
8B7A
330
8A02
100
AcDbEntity
  8
DEFPOINTS
  6
CONTINUOUS
 62
     0
100
AcDbPoint
 10
323.0000000000003
 20
-502.1666666666667
 30
0.0
  0
ENDBLK
  5
8A0D
330
8A02
100
AcDbEntity
  8
0
100
AcDbBlockEnd
  0
BLOCK
  5
8A18
330
8A0E
100
AcDbEntity
  8
0
100
AcDbBlockBegin
  2
*D16
 70
     1
 10
0.0
 20
0.0
 30
0.0
  3
*D16
  1

  0
LINE
  5
8B4F
330
8A0E
100
AcDbEntity
  8
30
  6
CONTINUOUS
 62
     0
100
AcDbLine
 10
267.0000000000002
 20
-484.0
 30
0.0
 11
267.0000000000002
 21
-502.1666666666667
 31
0.0
  0
LINE
  5
8B50
330
8A0E
100
AcDbEntity
  8
30
  6
CONTINUOUS
 62
     0
100
AcDbLine
 10
287.0000000000003
 20
-452.4999999999994
 30
0.0
 11
287.0000000000003
 21
-502.1666666666667
 31
0.0
  0
LINE
  5
8B51
330
8A0E
100
AcDbEntity
  8
30
  6
CONTINUOUS
 62
     0
100
AcDbLine
 10
269.0000000000002
 20
-501.6666666666666
 30
0.0
 11
285.0000000000003
 21
-501.6666666666666
 31
0.0
  0
INSERT
  5
8B52
330
8A0E
100
AcDbEntity
  8
30
  6
CONTINUOUS
 62
     0
100
AcDbBlockReference
  2
_OPEN
 10
267.0000000000002
 20
-501.6666666666666
 30
0.0
 41
2.0
 42
2.0
 43
2.0
 50
180.0
  0
INSERT
  5
8B53
330
8A0E
100
AcDbEntity
  8
30
  6
CONTINUOUS
 62
     0
100
AcDbBlockReference
  2
_OPEN
 10
287.0000000000003
 20
-501.6666666666666
 30
0.0
 41
2.0
 42
2.0
 43
2.0
  0
MTEXT
  5
8B54
330
8A0E
100
AcDbEntity
  8
30
  6
CONTINUOUS
 62
     0
100
AcDbMText
 10
277.0000000000002
 20
-498.1666666666667
 30
0.0
 40
5.0
 41
0.0
 71
     5
 72
     1
  1
\A1;20
1001
ACAD
1000
MTEXTBEGIN
1070
    73
1070
     1
1070
    44
1040
1.0
1070
    74
1070
     0
1000
MTEXTEND
  0
POINT
  5
8B55
330
8A0E
100
AcDbEntity
  8
DEFPOINTS
  6
CONTINUOUS
 62
     0
100
AcDbPoint
 10
267.0000000000002
 20
-483.0
 30
0.0
  0
POINT
  5
8B56
330
8A0E
100
AcDbEntity
  8
DEFPOINTS
  6
CONTINUOUS
 62
     0
100
AcDbPoint
 10
287.0000000000003
 20
-451.4999999999993
 30
0.0
  0
POINT
  5
8B57
330
8A0E
100
AcDbEntity
  8
DEFPOINTS
  6
CONTINUOUS
 62
     0
100
AcDbPoint
 10
287.0000000000003
 20
-501.6666666666666
 30
0.0
  0
ENDBLK
  5
8A19
330
8A0E
100
AcDbEntity
  8
0
100
AcDbBlockEnd
  0
BLOCK
  5
8A24
330
8A1A
100
AcDbEntity
  8
0
100
AcDbBlockBegin
  2
*D17
 70
     1
 10
0.0
 20
0.0
 30
0.0
  3
*D17
  1

  0
LINE
  5
8B58
330
8A1A
100
AcDbEntity
  8
30
  6
CONTINUOUS
 62
     0
100
AcDbLine
 10
224.0000000000003
 20
-469.5
 30
0.0
 11
224.0000000000003
 21
-502.1666666666667
 31
0.0
  0
LINE
  5
8B59
330
8A1A
100
AcDbEntity
  8
30
  6
CONTINUOUS
 62
     0
100
AcDbLine
 10
267.0000000000002
 20
-464.5
 30
0.0
 11
267.0000000000002
 21
-502.1666666666667
 31
0.0
  0
LINE
  5
8B5A
330
8A1A
100
AcDbEntity
  8
30
  6
CONTINUOUS
 62
     0
100
AcDbLine
 10
226.0000000000003
 20
-501.6666666666666
 30
0.0
 11
265.0000000000002
 21
-501.6666666666666
 31
0.0
  0
INSERT
  5
8B5B
330
8A1A
100
AcDbEntity
  8
30
  6
CONTINUOUS
 62
     0
100
AcDbBlockReference
  2
_OPEN
 10
224.0000000000003
 20
-501.6666666666666
 30
0.0
 41
2.0
 42
2.0
 43
2.0
 50
180.0
  0
INSERT
  5
8B5C
330
8A1A
100
AcDbEntity
  8
30
  6
CONTINUOUS
 62
     0
100
AcDbBlockReference
  2
_OPEN
 10
267.0000000000002
 20
-501.6666666666666
 30
0.0
 41
2.0
 42
2.0
 43
2.0
  0
MTEXT
  5
8B5D
330
8A1A
100
AcDbEntity
  8
30
  6
CONTINUOUS
 62
     0
100
AcDbMText
 10
245.5000000000002
 20
-498.1666666666667
 30
0.0
 40
5.0
 41
0.0
 71
     5
 72
     1
  1
\A1;43
1001
ACAD
1000
MTEXTBEGIN
1070
    73
1070
     1
1070
    44
1040
1.0
1070
    74
1070
     0
1000
MTEXTEND
  0
POINT
  5
8B5E
330
8A1A
100
AcDbEntity
  8
DEFPOINTS
  6
CONTINUOUS
 62
     0
100
AcDbPoint
 10
224.0000000000003
 20
-468.5
 30
0.0
  0
POINT
  5
8B5F
330
8A1A
100
AcDbEntity
  8
DEFPOINTS
  6
CONTINUOUS
 62
     0
100
AcDbPoint
 10
267.0000000000002
 20
-463.4999999999999
 30
0.0
  0
POINT
  5
8B60
330
8A1A
100
AcDbEntity
  8
DEFPOINTS
  6
CONTINUOUS
 62
     0
100
AcDbPoint
 10
267.0000000000002
 20
-501.6666666666666
 30
0.0
  0
ENDBLK
  5
8A25
330
8A1A
100
AcDbEntity
  8
0
100
AcDbBlockEnd
  0
BLOCK
  5
8A31
330
8A26
100
AcDbEntity
  8
0
100
AcDbBlockBegin
  2
*D18
 70
     1
 10
0.0
 20
0.0
 30
0.0
  3
*D18
  1

  0
LINE
  5
8B45
330
8A26
100
AcDbEntity
  8
30
  6
CONTINUOUS
 62
     0
100
AcDbLine
 10
219.0000000000003
 20
-456.5
 30
0.0
 11
219.0000000000003
 21
-502.5
 31
0.0
  0
LINE
  5
8B46
330
8A26
100
AcDbEntity
  8
30
  6
CONTINUOUS
 62
     0
100
AcDbLine
 10
224.0000000000003
 20
-464.5
 30
0.0
 11
224.0000000000003
 21
-502.5
 31
0.0
  0
LINE
  5
8B47
330
8A26
100
AcDbEntity
  8
30
  6
CONTINUOUS
 62
     0
100
AcDbLine
 10
226.0000000000003
 20
-502.0
 30
0.0
 11
228.0000000000003
 21
-502.0
 31
0.0
  0
LINE
  5
8B48
330
8A26
100
AcDbEntity
  8
30
  6
CONTINUOUS
 62
     0
100
AcDbLine
 10
217.0000000000003
 20
-502.0
 30
0.0
 11
209.6666666666669
 21
-502.0
 31
0.0
  0
INSERT
  5
8B49
330
8A26
100
AcDbEntity
  8
30
  6
CONTINUOUS
 62
     0
100
AcDbBlockReference
  2
_OPEN
 10
224.0000000000003
 20
-502.0
 30
0.0
 41
2.0
 42
2.0
 43
2.0
 50
180.0
  0
INSERT
  5
8B4A
330
8A26
100
AcDbEntity
  8
30
  6
CONTINUOUS
 62
     0
100
AcDbBlockReference
  2
_OPEN
 10
219.0000000000003
 20
-502.0
 30
0.0
 41
2.0
 42
2.0
 43
2.0
  0
MTEXT
  5
8B4B
330
8A26
100
AcDbEntity
  8
30
  6
CONTINUOUS
 62
     0
100
AcDbMText
 10
212.3333333333336
 20
-498.5
 30
0.0
 40
5.0
 41
0.0
 71
     5
 72
     1
  1
\A1;5
1001
ACAD
1000
MTEXTBEGIN
1070
    73
1070
     1
1070
    44
1040
1.0
1070
    74
1070
     0
1000
MTEXTEND
  0
POINT
  5
8B4C
330
8A26
100
AcDbEntity
  8
DEFPOINTS
  6
CONTINUOUS
 62
     0
100
AcDbPoint
 10
219.0000000000003
 20
-455.4999999999999
 30
0.0
  0
POINT
  5
8B4D
330
8A26
100
AcDbEntity
  8
DEFPOINTS
  6
CONTINUOUS
 62
     0
100
AcDbPoint
 10
224.0000000000003
 20
-463.4999999999999
 30
0.0
  0
POINT
  5
8B4E
330
8A26
100
AcDbEntity
  8
DEFPOINTS
  6
CONTINUOUS
 62
     0
100
AcDbPoint
 10
224.0000000000003
 20
-502.0
 30
0.0
  0
ENDBLK
  5
8A32
330
8A26
100
AcDbEntity
  8
0
100
AcDbBlockEnd
  0
BLOCK
  5
8A3D
330
8A33
100
AcDbEntity
  8
0
100
AcDbBlockBegin
  2
*D19
 70
     1
 10
0.0
 20
0.0
 30
0.0
  3
*D19
  1

  0
LINE
  5
8B61
330
8A33
100
AcDbEntity
  8
30
  6
CONTINUOUS
 62
     0
100
AcDbLine
 10
267.0000000000002
 20
-369.5
 30
0.0
 11
267.0000000000002
 21
-349.5
 31
0.0
  0
LINE
  5
8B62
330
8A33
100
AcDbEntity
  8
30
  6
CONTINUOUS
 62
     0
100
AcDbLine
 10
283.0000000000004
 20
-392.0
 30
0.0
 11
283.0000000000004
 21
-349.5
 31
0.0
  0
LINE
  5
8B63
330
8A33
100
AcDbEntity
  8
30
  6
CONTINUOUS
 62
     0
100
AcDbLine
 10
269.0000000000002
 20
-350.0
 30
0.0
 11
281.0000000000004
 21
-350.0
 31
0.0
  0
INSERT
  5
8B64
330
8A33
100
AcDbEntity
  8
30
  6
CONTINUOUS
 62
     0
100
AcDbBlockReference
  2
_OPEN
 10
267.0000000000002
 20
-350.0
 30
0.0
 41
2.0
 42
2.0
 43
2.0
 50
180.0
  0
INSERT
  5
8B65
330
8A33
100
AcDbEntity
  8
30
  6
CONTINUOUS
 62
     0
100
AcDbBlockReference
  2
_OPEN
 10
283.0000000000004
 20
-350.0
 30
0.0
 41
2.0
 42
2.0
 43
2.0
  0
MTEXT
  5
8B66
330
8A33
100
AcDbEntity
  8
30
  6
CONTINUOUS
 62
     0
100
AcDbMText
 10
275.0000000000003
 20
-346.4999999999999
 30
0.0
 40
5.0
 41
0.0
 71
     5
 72
     1
  1
\A1;16
1001
ACAD
1000
MTEXTBEGIN
1070
    73
1070
     1
1070
    44
1040
1.0
1070
    74
1070
     0
1000
MTEXTEND
  0
POINT
  5
8B67
330
8A33
100
AcDbEntity
  8
DEFPOINTS
  6
CONTINUOUS
 62
     0
100
AcDbPoint
 10
267.0000000000002
 20
-370.5
 30
0.0
  0
POINT
  5
8B68
330
8A33
100
AcDbEntity
  8
DEFPOINTS
  6
CONTINUOUS
 62
     0
100
AcDbPoint
 10
283.0000000000004
 20
-393.0
 30
0.0
  0
POINT
  5
8B69
330
8A33
100
AcDbEntity
  8
DEFPOINTS
  6
CONTINUOUS
 62
     0
100
AcDbPoint
 10
283.0000000000004
 20
-350.0
 30
0.0
  0
ENDBLK
  5
8A3E
330
8A33
100
AcDbEntity
  8
0
100
AcDbBlockEnd
  0
BLOCK
  5
8A48
330
8A3F
100
AcDbEntity
  8
0
100
AcDbBlockBegin
  2
*D20
 70
     1
 10
0.0
 20
0.0
 30
0.0
  3
*D20
  1

  0
LINE
  5
8B6A
330
8A3F
100
AcDbEntity
  8
30
  6
CONTINUOUS
 62
     0
100
AcDbLine
 10
324.0000000000002
 20
-439.4999999999993
 30
0.0
 11
342.4999999999998
 21
-439.4999999999993
 31
0.0
  0
LINE
  5
8B6B
330
8A3F
100
AcDbEntity
  8
30
  6
CONTINUOUS
 62
     0
100
AcDbLine
 10
334.0000000000002
 20
-419.4999999999994
 30
0.0
 11
342.4999999999998
 21
-419.4999999999994
 31
0.0
  0
LINE
  5
8B6C
330
8A3F
100
AcDbEntity
  8
30
  6
CONTINUOUS
 62
     0
100
AcDbLine
 10
341.9999999999999
 20
-437.4999999999992
 30
0.0
 11
341.9999999999999
 21
-421.4999999999993
 31
0.0
  0
INSERT
  5
8B6D
330
8A3F
100
AcDbEntity
  8
30
  6
CONTINUOUS
 62
     0
100
AcDbBlockReference
  2
_OPEN
 10
341.9999999999999
 20
-439.4999999999993
 30
0.0
 41
2.0
 42
2.0
 43
2.0
 50
270.0
  0
INSERT
  5
8B6E
330
8A3F
100
AcDbEntity
  8
30
  6
CONTINUOUS
 62
     0
100
AcDbBlockReference
  2
_OPEN
 10
341.9999999999999
 20
-419.4999999999994
 30
0.0
 41
2.0
 42
2.0
 43
2.0
 50
90.0
  0
POINT
  5
8B6F
330
8A3F
100
AcDbEntity
  8
DEFPOINTS
  6
CONTINUOUS
 62
     0
100
AcDbPoint
 10
323.0000000000003
 20
-439.4999999999993
 30
0.0
  0
POINT
  5
8B70
330
8A3F
100
AcDbEntity
  8
DEFPOINTS
  6
CONTINUOUS
 62
     0
100
AcDbPoint
 10
333.0000000000002
 20
-419.4999999999994
 30
0.0
  0
POINT
  5
8B71
330
8A3F
100
AcDbEntity
  8
DEFPOINTS
  6
CONTINUOUS
 62
     0
100
AcDbPoint
 10
341.9999999999999
 20
-419.4999999999994
 30
0.0
  0
ENDBLK
  5
8A49
330
8A3F
100
AcDbEntity
  8
0
100
AcDbBlockEnd
  0
BLOCK
  5
8A54
330
8A4A
100
AcDbEntity
  8
0
100
AcDbBlockBegin
  2
*D21
 70
     1
 10
0.0
 20
0.0
 30
0.0
  3
*D21
  1

  0
LINE
  5
8B7B
330
8A4A
100
AcDbEntity
  8
30
  6
CONTINUOUS
 62
     0
100
AcDbLine
 10
422.4999999999998
 20
-431.0
 30
0.0
 11
422.4999999999998
 21
-446.0862800174945
 31
0.0
  0
LINE
  5
8B7C
330
8A4A
100
AcDbEntity
  8
30
  6
CONTINUOUS
 62
     0
100
AcDbLine
 10
452.4999999999998
 20
-431.0
 30
0.0
 11
452.4999999999998
 21
-446.0862800174945
 31
0.0
  0
LINE
  5
8B7D
330
8A4A
100
AcDbEntity
  8
30
  6
CONTINUOUS
 62
     0
100
AcDbLine
 10
424.4999999999998
 20
-445.5862800174945
 30
0.0
 11
450.4999999999998
 21
-445.5862800174945
 31
0.0
  0
INSERT
  5
8B7E
330
8A4A
100
AcDbEntity
  8
30
  6
CONTINUOUS
 62
     0
100
AcDbBlockReference
  2
_OPEN
 10
422.4999999999998
 20
-445.5862800174945
 30
0.0
 41
2.0
 42
2.0
 43
2.0
 50
180.0
  0
INSERT
  5
8B7F
330
8A4A
100
AcDbEntity
  8
30
  6
CONTINUOUS
 62
     0
100
AcDbBlockReference
  2
_OPEN
 10
452.4999999999998
 20
-445.5862800174945
 30
0.0
 41
2.0
 42
2.0
 43
2.0
  0
MTEXT
  5
8B80
330
8A4A
100
AcDbEntity
  8
30
  6
CONTINUOUS
 62
     0
100
AcDbMText
 10
437.4999999999998
 20
-442.0862800174945
 30
0.0
 40
5.0
 41
0.0
 71
     5
 72
     1
  1
\A1;30
1001
ACAD
1000
MTEXTBEGIN
1070
    73
1070
     1
1070
    44
1040
1.0
1070
    74
1070
     0
1000
MTEXTEND
  0
POINT
  5
8B81
330
8A4A
100
AcDbEntity
  8
DEFPOINTS
  6
CONTINUOUS
 62
     0
100
AcDbPoint
 10
422.4999999999998
 20
-430.0
 30
0.0
  0
POINT
  5
8B82
330
8A4A
100
AcDbEntity
  8
DEFPOINTS
  6
CONTINUOUS
 62
     0
100
AcDbPoint
 10
452.4999999999998
 20
-430.0
 30
0.0
  0
POINT
  5
8B83
330
8A4A
100
AcDbEntity
  8
DEFPOINTS
  6
CONTINUOUS
 62
     0
100
AcDbPoint
 10
452.4999999999998
 20
-445.5862800174945
 30
0.0
  0
ENDBLK
  5
8A55
330
8A4A
100
AcDbEntity
  8
0
100
AcDbBlockEnd
  0
BLOCK
  5
8A5F
330
8A56
100
AcDbEntity
  8
0
100
AcDbBlockBegin
  2
*D22
 70
     1
 10
0.0
 20
0.0
 30
0.0
  3
*D22
  1

  0
LINE
  5
8B8D
330
8A56
100
AcDbEntity
  8
30
  6
CONTINUOUS
 62
     0
100
AcDbLine
 10
466.964840133799
 20
-386.9987140134608
 30
0.0
 11
455.9648401337991
 21
-386.9987140134608
 31
0.0
  0
LINE
  5
8B8E
330
8A56
100
AcDbEntity
  8
30
  6
CONTINUOUS
 62
     0
100
AcDbLine
 10
455.9648401337991
 20
-386.9987140134608
 30
0.0
 11
442.1950997478195
 21
-404.1514071471836
 31
0.0
  0
MTEXT
  5
8B8F
330
8A56
100
AcDbEntity
  8
30
  6
CONTINUOUS
 62
     0
100
AcDbMText
 10
461.9648401337991
 20
-383.4987140134608
 30
0.0
 40
5.0
 41
0.0
 71
     5
 72
     1
  1
\A1;\U+220511
1001
ACAD
1000
MTEXTBEGIN
1070
    73
1070
     1
1070
    44
1040
1.0
1070
    74
1070
     0
1000
MTEXTEND
  0
INSERT
  5
8B90
330
8A56
100
AcDbEntity
  8
30
  6
CONTINUOUS
 62
     0
100
AcDbBlockReference
  2
_OPEN
 10
440.9430731484007
 20
-405.7110319079347
 30
0.0
 41
2.0
 42
2.0
 43
2.0
 50
231.2434003354122
  0
LINE
  5
8B91
330
8A56
100
AcDbEntity
  8
30
  6
CONTINUOUS
 62
     0
100
AcDbLine
 10
437.4099999999993
 20
-410.0000000000001
 30
0.0
 11
437.5899999999992
 21
-410.0000000000001
 31
0.0
  0
LINE
  5
8B92
330
8A56
100
AcDbEntity
  8
30
  6
CONTINUOUS
 62
     0
100
AcDbLine
 10
437.4999999999992
 20
-410.0900000000001
 30
0.0
 11
437.4999999999992
 21
-409.9100000000001
 31
0.0
  0
POINT
  5
8B93
330
8A56
100
AcDbEntity
  8
DEFPOINTS
  6
CONTINUOUS
 62
     0
100
AcDbPoint
 10
440.9430731484007
 20
-405.7110319079347
 30
0.0
  0
POINT
  5
8B94
330
8A56
100
AcDbEntity
  8
DEFPOINTS
  6
CONTINUOUS
 62
     0
100
AcDbPoint
 10
434.0569268515978
 20
-414.2889680920655
 30
0.0
  0
ENDBLK
  5
8A60
330
8A56
100
AcDbEntity
  8
0
100
AcDbBlockEnd
  0
BLOCK
  5
8A6B
330
8A61
100
AcDbEntity
  8
0
100
AcDbBlockBegin
  2
*D23
 70
     1
 10
0.0
 20
0.0
 30
0.0
  3
*D23
  1

  0
LINE
  5
8B84
330
8A61
100
AcDbEntity
  8
30
  6
CONTINUOUS
 62
     0
100
AcDbLine
 10
453.4999999999998
 20
-430.0
 30
0.0
 11
469.4423296781886
 21
-430.0
 31
0.0
  0
LINE
  5
8B85
330
8A61
100
AcDbEntity
  8
30
  6
CONTINUOUS
 62
     0
100
AcDbLine
 10
445.9999999999996
 20
-410.0
 30
0.0
 11
469.4423296781886
 21
-410.0
 31
0.0
  0
LINE
  5
8B86
330
8A61
100
AcDbEntity
  8
30
  6
CONTINUOUS
 62
     0
100
AcDbLine
 10
468.9423296781886
 20
-428.0
 30
0.0
 11
468.9423296781886
 21
-412.0
 31
0.0
  0
INSERT
  5
8B87
330
8A61
100
AcDbEntity
  8
30
  6
CONTINUOUS
 62
     0
100
AcDbBlockReference
  2
_OPEN
 10
468.9423296781886
 20
-430.0
 30
0.0
 41
2.0
 42
2.0
 43
2.0
 50
270.0
  0
INSERT
  5
8B88
330
8A61
100
AcDbEntity
  8
30
  6
CONTINUOUS
 62
     0
100
AcDbBlockReference
  2
_OPEN
 10
468.9423296781886
 20
-410.0
 30
0.0
 41
2.0
 42
2.0
 43
2.0
 50
90.0
  0
MTEXT
  5
8B89
330
8A61
100
AcDbEntity
  8
30
  6
CONTINUOUS
 62
     0
100
AcDbMText
 10
465.4423296781888
 20
-419.9999999999999
 30
0.0
 40
5.0
 41
0.0
 71
     5
 72
     1
  1
\A1;20
 11
0.0000000000000001
 21
1.0
 31
0.0
1001
ACAD
1000
MTEXTBEGIN
1070
    73
1070
     1
1070
    44
1040
1.0
1070
    74
1070
     0
1000
MTEXTEND
  0
POINT
  5
8B8A
330
8A61
100
AcDbEntity
  8
DEFPOINTS
  6
CONTINUOUS
 62
     0
100
AcDbPoint
 10
452.4999999999998
 20
-430.0
 30
0.0
  0
POINT
  5
8B8B
330
8A61
100
AcDbEntity
  8
DEFPOINTS
  6
CONTINUOUS
 62
     0
100
AcDbPoint
 10
444.9999999999995
 20
-410.0
 30
0.0
  0
POINT
  5
8B8C
330
8A61
100
AcDbEntity
  8
DEFPOINTS
  6
CONTINUOUS
 62
     0
100
AcDbPoint
 10
468.9423296781886
 20
-410.0
 30
0.0
  0
ENDBLK
  5
8A6C
330
8A61
100
AcDbEntity
  8
0
100
AcDbBlockEnd
  0
ENDSEC
  0
SECTION
  2
ENTITIES
  0
LINE
  5
B4
330
1E
100
AcDbEntity
  8
16
100
AcDbLine
 10
0.0
 20
-170.0272802992444
 30
0.0
 11
0.0
 21
186.4499999999999
 31
0.0
  0
MTEXT
  5
BF3
330
1E
100
AcDbEntity
  8
24
  6
CONTINUOUS
100
AcDbMText
 10
142.1181906098743
 20
177.5
 30
0.0
 40
3.0
 41
0.0
 71
     1
 72
     1
  1
\A1;
1001
ACAD
1000
MTEXTBEGIN
1070
    73
1070
     1
1070
    44
1040
1.0
1070
    74
1070
     0
1000
MTEXTEND
1000
MTEXTBEGIN
1070
    73
1070
     1
1070
    44
1040
1.0
1070
    74
1070
     0
1000
MTEXTEND
1000
MTEXTBEGIN
1070
    73
1070
     1
1070
    44
1040
1.0
1070
    74
1070
     0
1000
MTEXTEND
  0
LINE
  5
1C9B
330
1E
100
AcDbEntity
  8
16
100
AcDbLine
 10
456.1890316890183
 20
0.0
 30
0.0
 11
218.0
 21
0.0
 31
0.0
  0
LINE
  5
2260
330
1E
100
AcDbEntity
  8
16
100
AcDbLine
 10
119.849715829992
 20
-450.0
 30
0.0
 11
-140.1065049170443
 21
-450.0
 31
0.0
  0
LINE
  5
4C5A
330
1E
100
AcDbEntity
  8
16
100
AcDbLine
 10
164.8497158299924
 20
0.0
 30
0.0
 11
-140.1065049170443
 21
0.0
 31
0.0
  0
LWPOLYLINE
  5
62AB
330
1E
100
AcDbEntity
  8
16
100
AcDbPolyline
 90
        2
 70
     0
 43
0.0
 10
0.0
 20
-620.0272802992445
 10
0.0
 20
-273.65625
  0
LINE
  5
75AD
330
1E
100
AcDbEntity
  8
10
100
AcDbLine
 10
70.0
 20
130.0
 30
0.0
 11
70.0
 21
-130.0
 31
0.0
  0
LINE
  5
75AE
330
1E
100
AcDbEntity
  8
10
100
AcDbLine
 10
-70.0
 20
130.0
 30
0.0
 11
-70.0
 21
-130.0
 31
0.0
  0
ARC
  5
75AF
330
1E
100
AcDbEntity
  8
10
100
AcDbCircle
 10
45.0
 20
-114.0
 30
0.0
 40
5.5
210
0.0
220
0.0
230
-1.0
100
AcDbArc
 50
0.0
 51
180.0
  0
LINE
  5
75B0
330
1E
100
AcDbEntity
  8
10
100
AcDbLine
 10
-70.0
 20
-143.0
 30
0.0
 11
70.0
 21
-143.0
 31
0.0
  0
LINE
  5
75B1
330
1E
100
AcDbEntity
  8
17
100
AcDbLine
 10
-54.0
 20
-114.0
 30
0.0
 11
-36.0
 21
-114.0
 31
0.0
  0
LINE
  5
75B2
330
1E
100
AcDbEntity
  8
10
100
AcDbLine
 10
-70.0
 20
-130.0
 30
0.0
 11
70.0
 21
-130.0
 31
0.0
  0
LINE
  5
75B3
330
1E
100
AcDbEntity
  8
10
100
AcDbLine
 10
-70.0
 20
-130.0
 30
0.0
 11
-70.0
 21
-143.0
 31
0.0
  0
LINE
  5
75B4
330
1E
100
AcDbEntity
  8
10
100
AcDbLine
 10
-50.5
 20
-114.0
 30
0.0
 11
-50.5
 21
-130.0
 31
0.0
  0
LINE
  5
75B5
330
1E
100
AcDbEntity
  8
17
100
AcDbLine
 10
-45.0
 20
-123.0
 30
0.0
 11
-45.0
 21
-105.0
 31
0.0
  0
LINE
  5
75B7
330
1E
100
AcDbEntity
  8
10
100
AcDbLine
 10
15.0
 20
-157.5
 30
0.0
 11
30.0
 21
-157.5
 31
0.0
  0
LINE
  5
75B8
330
1E
100
AcDbEntity
  8
10
100
AcDbLine
 10
-30.0
 20
-157.5
 30
0.0
 11
-15.00000000000015
 21
-157.5
 31
0.0
  0
LINE
  5
75B9
330
1E
100
AcDbEntity
  8
10
100
AcDbLine
 10
-30.0
 20
-142.9999999999995
 30
0.0
 11
-30.0
 21
-157.5
 31
0.0
  0
LINE
  5
75BA
330
1E
100
AcDbEntity
  8
10
100
AcDbLine
 10
-15.0
 20
-142.9999999999995
 30
0.0
 11
-15.0
 21
-157.5
 31
0.0
  0
LINE
  5
75BB
330
1E
100
AcDbEntity
  8
10
100
AcDbLine
 10
15.0
 20
-142.9999999999995
 30
0.0
 11
15.0
 21
-157.5
 31
0.0
  0
LINE
  5
75BC
330
1E
100
AcDbEntity
  8
10
100
AcDbLine
 10
30.0
 20
-142.9999999999995
 30
0.0
 11
30.0
 21
-157.5
 31
0.0
  0
CIRCLE
  5
75C0
330
1E
100
AcDbEntity
  8
12
100
AcDbCircle
 10
22.5
 20
-107.0
 30
0.0
 40
4.0
  0
LINE
  5
75C1
330
1E
100
AcDbEntity
  8
12
100
AcDbLine
 10
30.5
 20
-107.0
 30
0.0
 11
14.5
 21
-107.0
 31
0.0
  0
LINE
  5
75C2
330
1E
100
AcDbEntity
  8
10
100
AcDbLine
 10
-39.5
 20
-114.0
 30
0.0
 11
-39.5
 21
-130.0
 31
0.0
  0
LINE
  5
75C3
330
1E
100
AcDbEntity
  8
12
100
AcDbLine
 10
-14.5
 20
-107.0
 30
0.0
 11
-30.5
 21
-107.0
 31
0.0
  0
CIRCLE
  5
75C4
330
1E
100
AcDbEntity
  8
12
100
AcDbCircle
 10
-22.5
 20
-107.0
 30
0.0
 40
4.0
  0
LINE
  5
75C5
330
1E
100
AcDbEntity
  8
12
100
AcDbLine
 10
-22.5
 20
-99.0
 30
0.0
 11
-22.5
 21
-115.0
 31
0.0
  0
LINE
  5
75C6
330
1E
100
AcDbEntity
  8
10
100
AcDbLine
 10
5.5
 20
-114.0
 30
0.0
 11
5.5
 21
-130.0
 31
0.0
  0
LINE
  5
75C7
330
1E
100
AcDbEntity
  8
10
100
AcDbLine
 10
-5.5
 20
-114.0
 30
0.0
 11
-5.5
 21
-130.0
 31
0.0
  0
LINE
  5
75C8
330
1E
100
AcDbEntity
  8
10
100
AcDbLine
 10
0.0
 20
-123.0
 30
0.0
 11
0.0
 21
-105.0
 31
0.0
  0
ARC
  5
75C9
330
1E
100
AcDbEntity
  8
10
100
AcDbCircle
 10
0.0
 20
-114.0
 30
0.0
 40
5.5
210
0.0
220
0.0
230
-1.0
100
AcDbArc
 50
0.0
 51
180.0
  0
LINE
  5
75CA
330
1E
100
AcDbEntity
  8
17
100
AcDbLine
 10
-9.0
 20
-114.0
 30
0.0
 11
9.0
 21
-114.0
 31
0.0
  0
LINE
  5
75CB
330
1E
100
AcDbEntity
  8
17
100
AcDbLine
 10
36.0
 20
-114.0
 30
0.0
 11
53.99999999999995
 21
-114.0
 31
0.0
  0
LINE
  5
75CC
330
1E
100
AcDbEntity
  8
10
100
AcDbLine
 10
50.49999999999993
 20
-114.0
 30
0.0
 11
50.49999999999993
 21
-130.0
 31
0.0
  0
LINE
  5
75CD
330
1E
100
AcDbEntity
  8
10
100
AcDbLine
 10
39.5
 20
-114.0
 30
0.0
 11
39.5
 21
-130.0
 31
0.0
  0
LINE
  5
75CE
330
1E
100
AcDbEntity
  8
17
100
AcDbLine
 10
45.0
 20
-123.0
 30
0.0
 11
45.0
 21
-105.0
 31
0.0
  0
LINE
  5
75CF
330
1E
100
AcDbEntity
  8
12
100
AcDbLine
 10
22.5
 20
-99.0
 30
0.0
 11
22.5
 21
-115.0
 31
0.0
  0
ARC
  5
75D0
330
1E
100
AcDbEntity
  8
10
100
AcDbCircle
 10
-45.0
 20
-114.0
 30
0.0
 40
5.5
210
0.0
220
0.0
230
-1.0
100
AcDbArc
 50
0.0
 51
180.0
  0
LINE
  5
75D1
330
1E
100
AcDbEntity
  8
10
100
AcDbLine
 10
70.0
 20
-130.0
 30
0.0
 11
70.0
 21
-143.0
 31
0.0
  0
ARC
  5
75D6
330
1E
100
AcDbEntity
  8
10
100
AcDbCircle
 10
-45.0
 20
114.0
 30
0.0
 40
5.5
100
AcDbArc
 50
180.0
 51
0.0
  0
LINE
  5
75D7
330
1E
100
AcDbEntity
  8
10
100
AcDbLine
 10
70.0
 20
143.0
 30
0.0
 11
-70.0
 21
143.0
 31
0.0
  0
LINE
  5
75D8
330
1E
100
AcDbEntity
  8
17
100
AcDbLine
 10
-54.0
 20
114.0
 30
0.0
 11
-36.0
 21
114.0
 31
0.0
  0
LINE
  5
75D9
330
1E
100
AcDbEntity
  8
10
100
AcDbLine
 10
-70.0
 20
-51.0
 30
0.0
 11
70.0
 21
-51.0
 31
0.0
  0
LINE
  5
75DA
330
1E
100
AcDbEntity
  8
10
100
AcDbLine
 10
-70.0
 20
50.99999999999898
 30
0.0
 11
70.0
 21
50.99999999999898
 31
0.0
  0
LINE
  5
75DC
330
1E
100
AcDbEntity
  8
10
100
AcDbLine
 10
-53.0
 20
-45.0
 30
0.0
 11
52.99999999999993
 21
-45.0
 31
0.0
  0
LINE
  5
75DD
330
1E
100
AcDbEntity
  8
10
100
AcDbLine
 10
-53.0
 20
45.0
 30
0.0
 11
52.99999999999993
 21
45.0
 31
0.0
  0
LINE
  5
75DE
330
1E
100
AcDbEntity
  8
10
100
AcDbLine
 10
70.0
 20
130.0
 30
0.0
 11
-70.0
 21
130.0
 31
0.0
  0
LINE
  5
75DF
330
1E
100
AcDbEntity
  8
10
100
AcDbLine
 10
-50.5
 20
114.0
 30
0.0
 11
-50.5
 21
130.0
 31
0.0
  0
LINE
  5
75E0
330
1E
100
AcDbEntity
  8
17
100
AcDbLine
 10
-45.0
 20
105.0
 30
0.0
 11
-45.0
 21
123.0
 31
0.0
  0
LINE
  5
75E1
330
1E
100
AcDbEntity
  8
10
100
AcDbLine
 10
-58.0
 20
40.0
 30
0.0
 11
-58.0
 21
-40.0
 31
0.0
  0
ARC
  5
75E2
330
1E
100
AcDbEntity
  8
10
100
AcDbCircle
 10
-53.0
 20
-40.0
 30
0.0
 40
5.0
100
AcDbArc
 50
180.0
 51
270.0
  0
ARC
  5
75E3
330
1E
100
AcDbEntity
  8
10
100
AcDbCircle
 10
-53.0
 20
40.0
 30
0.0
 40
5.0
100
AcDbArc
 50
90.0
 51
180.0
  0
LINE
  5
75E4
330
1E
100
AcDbEntity
  8
10
100
AcDbLine
 10
-70.0
 20
143.0
 30
0.0
 11
-70.0
 21
130.0
 31
0.0
  0
LINE
  5
75E7
330
1E
100
AcDbEntity
  8
10
100
AcDbLine
 10
50.49999999999993
 20
114.0
 30
0.0
 11
50.49999999999993
 21
130.0
 31
0.0
  0
LINE
  5
75E8
330
1E
100
AcDbEntity
  8
10
100
AcDbLine
 10
39.5
 20
114.0
 30
0.0
 11
39.5
 21
130.0
 31
0.0
  0
LINE
  5
75E9
330
1E
100
AcDbEntity
  8
10
100
AcDbLine
 10
5.5
 20
114.0
 30
0.0
 11
5.5
 21
130.0
 31
0.0
  0
LINE
  5
75EA
330
1E
100
AcDbEntity
  8
10
100
AcDbLine
 10
-5.5
 20
114.0
 30
0.0
 11
-5.5
 21
130.0
 31
0.0
  0
LINE
  5
75EB
330
1E
100
AcDbEntity
  8
10
100
AcDbLine
 10
-39.5
 20
114.0
 30
0.0
 11
-39.5
 21
130.0
 31
0.0
  0
LINE
  5
75ED
330
1E
100
AcDbEntity
  8
17
100
AcDbLine
 10
45.0
 20
105.0
 30
0.0
 11
45.0
 21
123.0
 31
0.0
  0
LINE
  5
75EE
330
1E
100
AcDbEntity
  8
10
100
AcDbLine
 10
0.0
 20
105.0
 30
0.0
 11
0.0
 21
123.0
 31
0.0
  0
LINE
  5
75F1
330
1E
100
AcDbEntity
  8
10
100
AcDbLine
 10
57.99999999999993
 20
40.0
 30
0.0
 11
57.99999999999993
 21
-40.0
 31
0.0
  0
LINE
  5
75F2
330
1E
100
AcDbEntity
  8
10
100
AcDbLine
 10
25.4999999999997
 20
-45.0
 30
0.0
 11
25.49999999999982
 21
45.0
 31
0.0
  0
LINE
  5
75F3
330
1E
100
AcDbEntity
  8
10
100
AcDbLine
 10
-25.49999999999977
 20
-45.0
 30
0.0
 11
-25.49999999999994
 21
45.0
 31
0.0
  0
LINE
  5
75F4
330
1E
100
AcDbEntity
  8
10
100
AcDbLine
 10
19.0
 20
-40.44999999999993
 30
0.0
 11
24.30000000000001
 21
-40.44999999999993
 31
0.0
  0
LINE
  5
75F5
330
1E
100
AcDbEntity
  8
10
100
AcDbLine
 10
19.0
 20
-33.85000000000001
 30
0.0
 11
24.30000000000001
 21
-33.85000000000001
 31
0.0
  0
LINE
  5
75F6
330
1E
100
AcDbEntity
  8
10
100
AcDbLine
 10
-18.0
 20
-34.0
 30
0.0
 11
-18.00000000000017
 21
34.0
 31
0.0
  0
LINE
  5
75F7
330
1E
100
AcDbEntity
  8
10
100
AcDbLine
 10
18.0
 20
-34.0
 30
0.0
 11
18.0
 21
34.0
 31
0.0
  0
LINE
  5
75F8
330
1E
100
AcDbEntity
  8
10
100
AcDbLine
 10
18.0
 20
-34.0
 30
0.0
 11
-18.0
 21
-34.0
 31
0.0
  0
LINE
  5
75F9
330
1E
100
AcDbEntity
  8
10
100
AcDbLine
 10
19.0
 20
-33.85000000000001
 30
0.0
 11
19.0
 21
-40.44999999999993
 31
0.0
  0
LINE
  5
75FA
330
1E
100
AcDbEntity
  8
10
100
AcDbLine
 10
18.0
 20
34.0
 30
0.0
 11
-18.00000000000017
 21
34.0
 31
0.0
  0
LINE
  5
75FB
330
1E
100
AcDbEntity
  8
10
100
AcDbLine
 10
16.99999999999983
 20
32.80866032004519
 30
0.0
 11
-17.00000000000017
 21
32.80866032004519
 31
0.0
  0
LINE
  5
75FC
330
1E
100
AcDbEntity
  8
10
100
AcDbLine
 10
17.00000000000022
 20
22.97883578857727
 30
0.0
 11
-17.0
 21
22.97883578857727
 31
0.0
  0
LINE
  5
75FD
330
1E
100
AcDbEntity
  8
10
100
AcDbLine
 10
-17.00000000000017
 20
22.97883578857727
 30
0.0
 11
-17.00000000000017
 21
32.80866032004519
 31
0.0
  0
LINE
  5
75FE
330
1E
100
AcDbEntity
  8
10
100
AcDbLine
 10
17.0
 20
22.97883578857727
 30
0.0
 11
17.0
 21
32.80866032004519
 31
0.0
  0
LINE
  5
75FF
330
1E
100
AcDbEntity
  8
10
100
AcDbLine
 10
24.30000000000001
 20
-33.85000000000001
 30
0.0
 11
24.30000000000001
 21
-40.44999999999993
 31
0.0
  0
ARC
  5
7600
330
1E
100
AcDbEntity
  8
10
100
AcDbCircle
 10
52.99999999999993
 20
-40.0
 30
0.0
 40
5.0
100
AcDbArc
 50
270.0
 51
0.0
  0
CIRCLE
  5
7601
330
1E
100
AcDbEntity
  8
12
100
AcDbCircle
 10
-22.5
 20
107.0
 30
0.0
 40
4.0
210
0.0
220
0.0
230
-1.0
  0
LINE
  5
7602
330
1E
100
AcDbEntity
  8
12
100
AcDbLine
 10
30.5
 20
107.0
 30
0.0
 11
14.5
 21
107.0
 31
0.0
  0
LINE
  5
7603
330
1E
100
AcDbEntity
  8
12
100
AcDbLine
 10
-22.5
 20
115.0
 30
0.0
 11
-22.5
 21
99.0
 31
0.0
  0
LINE
  5
7604
330
1E
100
AcDbEntity
  8
12
100
AcDbLine
 10
-14.5
 20
107.0
 30
0.0
 11
-30.5
 21
107.0
 31
0.0
  0
CIRCLE
  5
7605
330
1E
100
AcDbEntity
  8
12
100
AcDbCircle
 10
22.5
 20
107.0
 30
0.0
 40
4.0
210
0.0
220
0.0
230
-1.0
  0
ARC
  5
7606
330
1E
100
AcDbEntity
  8
10
100
AcDbCircle
 10
0.0
 20
114.0
 30
0.0
 40
5.5
100
AcDbArc
 50
180.0
 51
0.0
  0
LINE
  5
7607
330
1E
100
AcDbEntity
  8
17
100
AcDbLine
 10
-9.0
 20
114.0
 30
0.0
 11
9.0
 21
114.0
 31
0.0
  0
ARC
  5
7608
330
1E
100
AcDbEntity
  8
10
100
AcDbCircle
 10
52.99999999999993
 20
40.0
 30
0.0
 40
5.0
100
AcDbArc
 50
0.0
 51
90.0
  0
LINE
  5
7609
330
1E
100
AcDbEntity
  8
17
100
AcDbLine
 10
36.0
 20
114.0
 30
0.0
 11
53.99999999999995
 21
114.0
 31
0.0
  0
LINE
  5
760A
330
1E
100
AcDbEntity
  8
12
100
AcDbLine
 10
22.5
 20
115.0
 30
0.0
 11
22.5
 21
99.0
 31
0.0
  0
ARC
  5
760B
330
1E
100
AcDbEntity
  8
10
100
AcDbCircle
 10
45.0
 20
114.0
 30
0.0
 40
5.5
100
AcDbArc
 50
180.0
 51
0.0
  0
LINE
  5
7668
330
1E
100
AcDbEntity
  8
10
100
AcDbLine
 10
30.0
 20
157.4999999999995
 30
0.0
 11
15.0
 21
157.4999999999995
 31
0.0
  0
LINE
  5
7669
330
1E
100
AcDbEntity
  8
10
100
AcDbLine
 10
-15.0
 20
157.4999999999995
 30
0.0
 11
-15.0
 21
143.0
 31
0.0
  0
LINE
  5
766A
330
1E
100
AcDbEntity
  8
10
100
AcDbLine
 10
-30.0
 20
157.4999999999995
 30
0.0
 11
-30.0
 21
143.0
 31
0.0
  0
LINE
  5
766B
330
1E
100
AcDbEntity
  8
10
100
AcDbLine
 10
-15.0
 20
157.4999999999995
 30
0.0
 11
-30.0
 21
157.4999999999995
 31
0.0
  0
LINE
  5
766C
330
1E
100
AcDbEntity
  8
10
100
AcDbLine
 10
15.0
 20
157.4999999999995
 30
0.0
 11
15.0
 21
143.0
 31
0.0
  0
LINE
  5
766D
330
1E
100
AcDbEntity
  8
10
100
AcDbLine
 10
30.0
 20
157.4999999999995
 30
0.0
 11
30.0
 21
143.0
 31
0.0
  0
LINE
  5
7671
330
1E
100
AcDbEntity
  8
10
100
AcDbLine
 10
70.0
 20
143.0
 30
0.0
 11
70.0
 21
130.0
 31
0.0
  0
LINE
  5
7807
330
1E
100
AcDbEntity
  8
18
 48
2.0
100
AcDbLine
 10
70.0
 20
-307.0
 30
0.0
 11
70.0
 21
-593.0000000000001
 31
0.0
  0
LINE
  5
7808
330
1E
100
AcDbEntity
  8
18
 48
2.0
100
AcDbLine
 10
-70.0
 20
-307.0
 30
0.0
 11
-70.0
 21
-592.9999999999997
 31
0.0
  0
LINE
  5
7809
330
1E
100
AcDbEntity
  8
18
 48
2.0
100
AcDbLine
 10
-70.0
 20
-593.0
 30
0.0
 11
-30.00000000000017
 21
-593.0
 31
0.0
  0
LINE
  5
7811
330
1E
100
AcDbEntity
  8
18
 48
2.0
100
AcDbLine
 10
14.99999999999983
 20
-607.5
 30
0.0
 11
30.0
 21
-607.5
 31
0.0
  0
LINE
  5
7812
330
1E
100
AcDbEntity
  8
18
 48
2.0
100
AcDbLine
 10
-15.0
 20
-593.0
 30
0.0
 11
15.0
 21
-593.0
 31
0.0
  0
LINE
  5
7813
330
1E
100
AcDbEntity
  8
18
 48
2.0
100
AcDbLine
 10
-15.0
 20
-592.9999999999997
 30
0.0
 11
-15.0
 21
-607.5
 31
0.0
  0
LINE
  5
7814
330
1E
100
AcDbEntity
  8
18
 48
2.0
100
AcDbLine
 10
-30.0
 20
-592.9999999999997
 30
0.0
 11
-30.0
 21
-607.5
 31
0.0
  0
LINE
  5
7815
330
1E
100
AcDbEntity
  8
18
 48
2.0
100
AcDbLine
 10
-30.0
 20
-607.5
 30
0.0
 11
-15.00000000000015
 21
-607.5
 31
0.0
  0
LINE
  5
7816
330
1E
100
AcDbEntity
  8
18
 48
2.0
100
AcDbLine
 10
15.0
 20
-592.9999999999997
 30
0.0
 11
15.0
 21
-607.5
 31
0.0
  0
LINE
  5
7817
330
1E
100
AcDbEntity
  8
18
 48
2.0
100
AcDbLine
 10
30.0
 20
-593.0
 30
0.0
 11
70.0
 21
-593.0000000000001
 31
0.0
  0
LINE
  5
7818
330
1E
100
AcDbEntity
  8
18
 48
2.0
100
AcDbLine
 10
30.0
 20
-592.9999999999997
 30
0.0
 11
30.0
 21
-607.5
 31
0.0
  0
LINE
  5
781F
330
1E
100
AcDbEntity
  8
18
 48
2.0
100
AcDbLine
 10
-30.0
 20
-307.0
 30
0.0
 11
-70.0
 21
-307.0
 31
0.0
  0
LINE
  5
7821
330
1E
100
AcDbEntity
  8
18
 48
2.0
100
AcDbLine
 10
30.0
 20
-292.5
 30
0.0
 11
15.0
 21
-292.5
 31
0.0
  0
LINE
  5
7822
330
1E
100
AcDbEntity
  8
18
 48
2.0
100
AcDbLine
 10
15.0
 20
-307.0
 30
0.0
 11
-15.0
 21
-307.0
 31
0.0
  0
LINE
  5
7823
330
1E
100
AcDbEntity
  8
18
 48
2.0
100
AcDbLine
 10
-15.0
 20
-292.5
 30
0.0
 11
-15.0
 21
-307.0
 31
0.0
  0
LINE
  5
7824
330
1E
100
AcDbEntity
  8
18
 48
2.0
100
AcDbLine
 10
-30.0
 20
-292.5
 30
0.0
 11
-30.0
 21
-307.0
 31
0.0
  0
LINE
  5
7825
330
1E
100
AcDbEntity
  8
18
 48
2.0
100
AcDbLine
 10
-15.0
 20
-292.5
 30
0.0
 11
-30.0
 21
-292.5
 31
0.0
  0
LINE
  5
7826
330
1E
100
AcDbEntity
  8
18
 48
2.0
100
AcDbLine
 10
15.0
 20
-292.5
 30
0.0
 11
15.0
 21
-307.0
 31
0.0
  0
LINE
  5
7827
330
1E
100
AcDbEntity
  8
18
 48
2.0
100
AcDbLine
 10
70.0
 20
-307.0
 30
0.0
 11
30.0
 21
-307.0
 31
0.0
  0
LINE
  5
7828
330
1E
100
AcDbEntity
  8
18
 48
2.0
100
AcDbLine
 10
30.0
 20
-292.5
 30
0.0
 11
30.0
 21
-307.0
 31
0.0
  0
MTEXT
  5
7B0D
330
1E
100
AcDbEntity
  8
30
  6
CONTINUOUS
100
AcDbMText
 10
336.0
 20
247.5
 30
0.0
 40
5.0
 41
0.0
 71
     1
 72
     1
  1
\A1;
1001
ACAD
1000
MTEXTBEGIN
1070
    73
1070
     1
1070
    44
1040
1.0
1070
    74
1070
     0
1000
MTEXTEND
1000
MTEXTBEGIN
1070
    73
1070
     1
1070
    44
1040
1.0
1070
    74
1070
     0
1000
MTEXTEND
1000
MTEXTBEGIN
1070
    73
1070
     1
1070
    44
1040
1.0
1070
    74
1070
     0
1000
MTEXTEND
  0
DIMENSION
  5
7DCD
330
1E
100
AcDbEntity
  8
30
  6
CONTINUOUS
100
AcDbDimension
  2
*D1
 10
-90.0
 20
-130.0
 30
0.0
 11
-93.49999999999996
 21
-0.0000000000000793
 31
0.0
 70
    32
  3
STANDARD
100
AcDbAlignedDimension
 13
-70.0
 23
130.0
 33
0.0
 14
-70.0
 24
-130.0
 34
0.0
 50
90.0
100
AcDbRotatedDimension
  0
DIMENSION
  5
7DDA
330
1E
100
AcDbEntity
  8
30
  6
CONTINUOUS
100
AcDbDimension
  2
*D2
 10
-103.0
 20
-143.0
 30
0.0
 11
-106.4999999999999
 21
-0.0000000000000217
 31
0.0
 70
    32
  3
STANDARD
100
AcDbAlignedDimension
 13
-70.0
 23
143.0
 33
0.0
 14
-70.0
 24
-143.0
 34
0.0
 50
90.0
100
AcDbRotatedDimension
  0
DIMENSION
  5
7DE7
330
1E
100
AcDbEntity
  8
30
  6
CONTINUOUS
100
AcDbDimension
  2
*D3
 10
-117.0
 20
-157.4999999999999
 30
0.0
 11
-120.4999999999996
 21
-0.0000000000000493
 31
0.0
 70
    32
  3
STANDARD
100
AcDbAlignedDimension
 13
-30.0
 23
157.4999999999995
 33
0.0
 14
-30.0
 24
-157.5
 34
0.0
 50
90.0
100
AcDbRotatedDimension
  0
DIMENSION
  5
7E0F
330
1E
100
AcDbEntity
  8
30
  6
CONTINUOUS
100
AcDbDimension
  2
*D4
 10
70.0
 20
-176.0
 30
0.0
 11
0.0000000000000002
 21
-172.5
 31
0.0
 70
    32
  3
STANDARD
100
AcDbAlignedDimension
 13
-70.0
 23
-143.0
 33
0.0
 14
70.0
 24
-143.0
 34
0.0
100
AcDbRotatedDimension
  0
CIRCLE
  5
8317
330
1E
100
AcDbEntity
  8
12
100
AcDbCircle
 10
-35.0
 20
-520.0
 30
0.0
 40
2.75
  0
LINE
  5
8318
330
1E
100
AcDbEntity
  8
12
100
AcDbLine
 10
-41.74999999999999
 20
-520.0
 30
0.0
 11
-28.25
 21
-520.0
 31
0.0
  0
LINE
  5
8319
330
1E
100
AcDbEntity
  8
12
100
AcDbLine
 10
-35.0
 20
-513.25
 30
0.0
 11
-35.0
 21
-526.75
 31
0.0
  0
CIRCLE
  5
831A
330
1E
100
AcDbEntity
  8
12
100
AcDbCircle
 10
-35.0
 20
-380.0
 30
0.0
 40
2.75
  0
LINE
  5
831B
330
1E
100
AcDbEntity
  8
12
100
AcDbLine
 10
-41.74999999999999
 20
-380.0
 30
0.0
 11
-28.25
 21
-380.0
 31
0.0
  0
LINE
  5
831C
330
1E
100
AcDbEntity
  8
12
100
AcDbLine
 10
-35.0
 20
-373.2499999999998
 30
0.0
 11
-35.0
 21
-386.75
 31
0.0
  0
LINE
  5
831D
330
1E
100
AcDbEntity
  8
12
100
AcDbLine
 10
35.0
 20
-513.25
 30
0.0
 11
35.0
 21
-526.75
 31
0.0
  0
CIRCLE
  5
831E
330
1E
100
AcDbEntity
  8
12
100
AcDbCircle
 10
35.0
 20
-520.0
 30
0.0
 40
2.75
  0
LINE
  5
831F
330
1E
100
AcDbEntity
  8
12
100
AcDbLine
 10
28.25
 20
-520.0
 30
0.0
 11
41.74999999999999
 21
-520.0
 31
0.0
  0
CIRCLE
  5
8320
330
1E
100
AcDbEntity
  8
12
100
AcDbCircle
 10
35.0
 20
-380.0
 30
0.0
 40
2.75
  0
LINE
  5
8321
330
1E
100
AcDbEntity
  8
12
100
AcDbLine
 10
35.0
 20
-373.2499999999998
 30
0.0
 11
35.0
 21
-386.75
 31
0.0
  0
LINE
  5
8322
330
1E
100
AcDbEntity
  8
12
100
AcDbLine
 10
28.25
 20
-380.0
 30
0.0
 11
41.74999999999999
 21
-380.0
 31
0.0
  0
DIMENSION
  5
8323
330
1E
100
AcDbEntity
  8
30
  6
CONTINUOUS
100
AcDbDimension
  2
*D5
 10
34.99999999999999
 20
-648.0
 30
0.0
 11
-0.0000000000000069
 21
-644.5
 31
0.0
 70
    32
  3
STANDARD
100
AcDbAlignedDimension
 13
-35.0
 23
-526.75
 33
0.0
 14
35.0
 24
-526.75
 34
0.0
100
AcDbRotatedDimension
  0
DIMENSION
  5
834A
330
1E
100
AcDbEntity
  8
30
  6
CONTINUOUS
100
AcDbDimension
  2
*D8
 10
110.0
 20
-520.0
 30
0.0
 11
106.5000000000001
 21
-450.0
 31
0.0
 70
    32
  3
STANDARD
100
AcDbAlignedDimension
 13
41.74999999999999
 23
-380.0
 33
0.0
 14
41.74999999999999
 24
-520.0
 34
0.0
 50
90.0
100
AcDbRotatedDimension
  0
LINE
  5
837F
330
1E
100
AcDbEntity
  8
10
100
AcDbLine
 10
95.70980217546212
 20
-400.0
 30
0.0
 11
-82.29019782453997
 21
-400.0
 31
0.0
  0
LINE
  5
8380
330
1E
100
AcDbEntity
  8
10
100
AcDbLine
 10
98.00000000000006
 20
-405.0
 30
0.0
 11
-80.0
 21
-405.0
 31
0.0
  0
LINE
  5
8381
330
1E
100
AcDbEntity
  8
10
100
AcDbLine
 10
98.00000000000006
 20
-365.0
 30
0.0
 11
-80.0
 21
-365.0
 31
0.0
  0
SPLINE
  5
8382
330
1E
100
AcDbEntity
  8
10
100
AcDbSpline
210
0.0
220
0.0
230
1.0
 70
     8
 71
     3
 72
     9
 73
     5
 74
     0
 42
0.0000000001
 43
0.0000000001
 40
0.0
 40
0.0
 40
0.0
 40
0.0
 40
0.5
 40
1.0
 40
1.0
 40
1.0
 40
1.0
 10
-80.0
 20
-365.0
 30
0.0
 10
-86.5
 20
-377.0
 30
0.0
 10
-78.5
 20
-389.0
 30
0.0
 10
-84.50000000000001
 20
-399.0
 30
0.0
 10
-80.0
 20
-405.0
 30
0.0
  0
SPLINE
  5
8384
330
1E
100
AcDbEntity
  8
10
100
AcDbSpline
210
0.0
220
0.0
230
1.0
 70
     8
 71
     3
 72
     9
 73
     5
 74
     0
 42
0.0000000001
 43
0.0000000001
 40
0.0
 40
0.0
 40
0.0
 40
0.0
 40
0.5
 40
1.0
 40
1.0
 40
1.0
 40
1.0
 10
98.00000000000006
 20
-365.0
 30
0.0
 10
91.50000000000003
 20
-377.0
 30
0.0
 10
99.50000000000006
 20
-389.0
 30
0.0
 10
93.50000000000006
 20
-399.0
 30
0.0
 10
98.00000000000006
 20
-405.0
 30
0.0
  0
LINE
  5
8385
330
1E
100
AcDbEntity
  8
10
100
AcDbLine
 10
-82.28189342645647
 20
-500.0
 30
0.0
 11
81.7181065735436
 21
-500.0
 31
0.0
  0
LINE
  5
8386
330
1E
100
AcDbEntity
  8
10
100
AcDbLine
 10
-80.0
 20
-535.0
 30
0.0
 11
84.00000000000003
 21
-535.0
 31
0.0
  0
LINE
  5
8387
330
1E
100
AcDbEntity
  8
10
100
AcDbLine
 10
-80.0
 20
-495.0
 30
0.0
 11
84.00000000000003
 21
-495.0
 31
0.0
  0
SPLINE
  5
8388
330
1E
100
AcDbEntity
  8
10
100
AcDbSpline
210
0.0
220
0.0
230
1.0
 70
     8
 71
     3
 72
     9
 73
     5
 74
     0
 42
0.0000000001
 43
0.0000000001
 40
0.0
 40
0.0
 40
0.0
 40
0.0
 40
0.5
 40
1.0
 40
1.0
 40
1.0
 40
1.0
 10
84.00000000000003
 20
-495.0
 30
0.0
 10
77.50000000000007
 20
-507.0
 30
0.0
 10
85.50000000000007
 20
-517.0
 30
0.0
 10
79.50000000000007
 20
-525.0
 30
0.0
 10
84.00000000000003
 20
-535.0
 30
0.0
  0
SPLINE
  5
8389
330
1E
100
AcDbEntity
  8
10
100
AcDbSpline
210
0.0
220
0.0
230
1.0
 70
     8
 71
     3
 72
     9
 73
     5
 74
     0
 42
0.0000000001
 43
0.0000000001
 40
0.0
 40
0.0
 40
0.0
 40
0.0
 40
0.5
 40
1.0
 40
1.0
 40
1.0
 40
1.0
 10
-80.0
 20
-495.0
 30
0.0
 10
-86.5
 20
-507.0
 30
0.0
 10
-78.5
 20
-517.0
 30
0.0
 10
-84.50000000000001
 20
-525.0
 30
0.0
 10
-80.0
 20
-535.0
 30
0.0
  0
INSERT
  5
83A9
330
1E
100
AcDbEntity
  8
30
100
AcDbBlockReference
  2
*U9
 10
-1220.627990430622
 20
-779.6618080089404
 30
0.0
 41
2.5
 42
2.5
 43
2.5
  0
TEXT
  5
83AA
330
1E
100
AcDbEntity
  8
30
100
AcDbText
 10
91.08930659638737
 20
-589.9116046250867
 30
0.0
 40
6.25
  1
Mounting plate
 41
0.7125304878048843
  7
UGMTXT
100
AcDbText
  0
LINE
  5
8403
330
1E
100
AcDbEntity
  8
10
100
AcDbLine
 10
70.0
 20
-130.0
 30
0.0
 11
70.0
 21
130.0
 31
0.0
  0
DIMENSION
  5
85DA
330
1E
100
AcDbEntity
  8
30
  6
CONTINUOUS
100
AcDbDimension
  2
*D10
 10
494.6062902121223
 20
-113.9999999999992
 30
0.0
 11
491.1062902121223
 21
0.0000000000008086
 31
0.0
 70
    32
  3
STANDARD
100
AcDbAlignedDimension
 13
478.0
 23
114.0000000000005
 33
0.0
 14
478.0
 24
-113.9999999999992
 34
0.0
 50
90.0
100
AcDbRotatedDimension
  0
DIMENSION
  5
85DB
330
1E
100
AcDbEntity
  8
30
  6
CONTINUOUS
100
AcDbDimension
  2
*D11
 10
414.0
 20
-171.0
 30
0.0
 11
320.0
 21
-167.5
 31
0.0
 70
    32
  3
STANDARD
100
AcDbAlignedDimension
 13
226.0
 23
-51.0
 33
0.0
 14
414.0
 24
-157.5
 34
0.0
100
AcDbRotatedDimension
  0
LINE
  5
85DC
330
1E
100
AcDbEntity
  8
10
100
AcDbLine
 10
470.0
 20
-108.9999999999992
 30
0.0
 11
470.0
 21
-118.999999999999
 31
0.0
  0
LINE
  5
85DD
330
1E
100
AcDbEntity
  8
10
100
AcDbLine
 10
466.0
 20
-90.0
 30
0.0
 11
466.0
 21
-137.9999999999998
 31
0.0
  0
LINE
  5
85DE
330
1E
100
AcDbEntity
  8
10
100
AcDbLine
 10
366.0
 20
130.0
 30
0.0
 11
366.0
 21
-130.0
 31
0.0
  0
LINE
  5
85DF
330
1E
100
AcDbEntity
  8
10
100
AcDbLine
 10
232.0
 20
-51.0
 30
0.0
 11
232.0
 21
-130.0
 31
0.0
  0
LINE
  5
85E0
330
1E
100
AcDbEntity
  8
10
100
AcDbLine
 10
371.0
 20
143.0
 30
0.0
 11
371.0
 21
-143.0
 31
0.0
  0
DIMENSION
  5
85E1
330
1E
100
AcDbEntity
  8
30
  6
CONTINUOUS
100
AcDbDimension
  2
*D12
 10
466.0
 20
-171.0
 30
0.0
 11
440.0
 21
-167.5
 31
0.0
 70
    32
  3
STANDARD
100
AcDbAlignedDimension
 13
414.0
 23
-138.0
 33
0.0
 14
466.0
 24
-137.9999999999998
 34
0.0
100
AcDbRotatedDimension
  0
LINE
  5
85E2
330
1E
100
AcDbEntity
  8
10
100
AcDbLine
 10
371.0
 20
-138.0
 30
0.0
 11
466.0
 21
-138.0
 31
0.0
  0
LINE
  5
85E3
330
1E
100
AcDbEntity
  8
17
100
AcDbLine
 10
321.0
 20
-113.9999999999992
 30
0.0
 11
478.0
 21
-113.9999999999992
 31
0.0
  0
LINE
  5
85E4
330
1E
100
AcDbEntity
  8
10
100
AcDbLine
 10
232.0
 20
-130.0
 30
0.0
 11
366.0
 21
-130.0
 31
0.0
  0
LINE
  5
85E5
330
1E
100
AcDbEntity
  8
10
100
AcDbLine
 10
354.0
 20
-143.0
 30
0.0
 11
371.0
 21
-143.0
 31
0.0
  0
LINE
  5
85E6
330
1E
100
AcDbEntity
  8
10
100
AcDbLine
 10
354.0
 20
-130.0
 30
0.0
 11
354.0
 21
-143.0
 31
0.0
  0
LINE
  5
85E7
330
1E
100
AcDbEntity
  8
10
100
AcDbLine
 10
401.0
 20
-157.5
 30
0.0
 11
414.0
 21
-157.5
 31
0.0
  0
LINE
  5
85E8
330
1E
100
AcDbEntity
  8
10
100
AcDbLine
 10
401.0
 20
-137.9999999999998
 30
0.0
 11
401.0
 21
-157.5
 31
0.0
  0
LINE
  5
85E9
330
1E
100
AcDbEntity
  8
10
100
AcDbLine
 10
414.0
 20
-137.9999999999998
 30
0.0
 11
414.0
 21
-157.5
 31
0.0
  0
DIMENSION
  5
85EA
330
1E
100
AcDbEntity
  8
30
  6
CONTINUOUS
100
AcDbDimension
  2
*D13
 10
470.0
 20
-171.0
 30
0.0
 11
476.6666666666666
 21
-167.5
 31
0.0
 70
    32
  3
STANDARD
100
AcDbAlignedDimension
 13
466.0
 23
-138.9999999999998
 33
0.0
 14
470.0
 24
-118.9999999999992
 34
0.0
100
AcDbRotatedDimension
  0
LINE
  5
85EB
330
1E
100
AcDbEntity
  8
10
100
AcDbLine
 10
466.0
 20
-118.9999999999992
 30
0.0
 11
470.0
 21
-118.9999999999992
 31
0.0
  0
LINE
  5
85EC
330
1E
100
AcDbEntity
  8
12
100
AcDbLine
 10
419.0
 20
67.5
 30
0.0
 11
396.0
 21
67.5
 31
0.0
  0
LINE
  5
85ED
330
1E
100
AcDbEntity
  8
12
100
AcDbLine
 10
419.0
 20
72.5
 30
0.0
 11
396.0
 21
72.5
 31
0.0
  0
LINE
  5
85EE
330
1E
100
AcDbEntity
  8
10
100
AcDbLine
 10
466.0
 20
138.0
 30
0.0
 11
371.0
 21
138.0
 31
0.0
  0
LINE
  5
85EF
330
1E
100
AcDbEntity
  8
10
100
AcDbLine
 10
466.0
 20
90.0
 30
0.0
 11
371.0
 21
90.0
 31
0.0
  0
LINE
  5
85F0
330
1E
100
AcDbEntity
  8
17
100
AcDbLine
 10
478.0
 20
114.0000000000005
 30
0.0
 11
321.0
 21
114.0000000000005
 31
0.0
  0
LINE
  5
85F1
330
1E
100
AcDbEntity
  8
12
100
AcDbLine
 10
438.0
 20
70.0
 30
0.0
 11
383.0
 21
70.0
 31
0.0
  0
LINE
  5
85F2
330
1E
100
AcDbEntity
  8
12
100
AcDbLine
 10
419.0
 20
-67.5
 30
0.0
 11
396.0
 21
-67.5
 31
0.0
  0
LINE
  5
85F3
330
1E
100
AcDbEntity
  8
12
100
AcDbLine
 10
419.0
 20
-72.5
 30
0.0
 11
396.0
 21
-72.5
 31
0.0
  0
LINE
  5
85F4
330
1E
100
AcDbEntity
  8
10
100
AcDbLine
 10
371.0
 20
-90.0
 30
0.0
 11
466.0
 21
-90.0
 31
0.0
  0
LINE
  5
85F5
330
1E
100
AcDbEntity
  8
12
100
AcDbLine
 10
438.0
 20
-70.0
 30
0.0
 11
383.0
 21
-70.0
 31
0.0
  0
LINE
  5
85F6
330
1E
100
AcDbEntity
  8
16
100
AcDbLine
 10
464.7953219011405
 20
0.0
 30
0.0
 11
189.6062902121224
 21
0.0
 31
0.0
  0
LINE
  5
85F7
330
1E
100
AcDbEntity
  8
10
100
AcDbLine
 10
366.0
 20
130.0
 30
0.0
 11
232.0
 21
130.0
 31
0.0
  0
LINE
  5
85F8
330
1E
100
AcDbEntity
  8
10
100
AcDbLine
 10
232.0
 20
130.0
 30
0.0
 11
232.0
 21
51.0
 31
0.0
  0
LINE
  5
85F9
330
1E
100
AcDbEntity
  8
10
100
AcDbLine
 10
218.0
 20
17.03370272535221
 30
0.0
 11
187.3490118975476
 21
28.03853193396582
 31
0.0
  0
LINE
  5
85FA
330
1E
100
AcDbEntity
  8
10
100
AcDbLine
 10
218.0
 20
29.78370889367909
 30
0.0
 11
191.4040125135876
 21
39.33264411704225
 31
0.0
  0
LINE
  5
85FB
330
1E
100
AcDbEntity
  8
10
100
AcDbLine
 10
191.4040125135876
 20
39.33264411704225
 30
0.0
 11
187.3490118975476
 21
28.03853193396582
 31
0.0
  0
LINE
  5
85FC
330
1E
100
AcDbEntity
  8
10
100
AcDbLine
 10
218.0
 20
45.0
 30
0.0
 11
218.0
 21
-45.0
 31
0.0
  0
LINE
  5
85FD
330
1E
100
AcDbEntity
  8
10
100
AcDbLine
 10
222.0
 20
45.0
 30
0.0
 11
222.0
 21
-45.0
 31
0.0
  0
LINE
  5
85FE
330
1E
100
AcDbEntity
  8
10
100
AcDbLine
 10
226.0
 20
51.0
 30
0.0
 11
226.0
 21
-51.0
 31
0.0
  0
LINE
  5
85FF
330
1E
100
AcDbEntity
  8
10
100
AcDbLine
 10
226.0
 20
-51.0
 30
0.0
 11
232.0
 21
-51.0
 31
0.0
  0
LINE
  5
8600
330
1E
100
AcDbEntity
  8
10
100
AcDbLine
 10
218.0
 20
-45.0
 30
0.0
 11
226.0
 21
-45.0
 31
0.0
  0
LINE
  5
8601
330
1E
100
AcDbEntity
  8
10
100
AcDbLine
 10
218.0
 20
19.15870375340682
 30
0.0
 11
204.4954256005409
 21
24.00734139942017
 31
0.0
  0
LINE
  5
8602
330
1E
100
AcDbEntity
  8
10
100
AcDbLine
 10
218.0
 20
27.65870786562459
 30
0.0
 11
207.1987593445677
 21
31.53674952147116
 31
0.0
  0
LINE
  5
8603
330
1E
100
AcDbEntity
  8
10
100
AcDbLine
 10
207.1987593445673
 20
31.53674952147116
 30
0.0
 11
204.4954256005409
 21
24.00734139942017
 31
0.0
  0
LINE
  5
8604
330
1E
100
AcDbEntity
  8
10
100
AcDbLine
 10
226.0
 20
51.0
 30
0.0
 11
232.0
 21
51.0
 31
0.0
  0
LINE
  5
8605
330
1E
100
AcDbEntity
  8
10
100
AcDbLine
 10
218.0
 20
45.0
 30
0.0
 11
226.0
 21
45.0
 31
0.0
  0
LINE
  5
8606
330
1E
100
AcDbEntity
  8
12
100
AcDbLine
 10
396.0
 20
75.0
 30
0.0
 11
396.0
 21
65.0
 31
0.0
  0
LINE
  5
8607
330
1E
100
AcDbEntity
  8
12
100
AcDbLine
 10
395.0
 20
75.0
 30
0.0
 11
395.0
 21
65.0
 31
0.0
  0
LINE
  5
8608
330
1E
100
AcDbEntity
  8
12
100
AcDbLine
 10
391.0
 20
74.5
 30
0.0
 11
391.0
 21
65.5
 31
0.0
  0
LINE
  5
8609
330
1E
100
AcDbEntity
  8
10
100
AcDbLine
 10
414.0
 20
90.00000000000046
 30
0.0
 11
414.0
 21
-90.0
 31
0.0
  0
LINE
  5
860A
330
1E
100
AcDbEntity
  8
12
100
AcDbLine
 10
395.0
 20
-75.0
 30
0.0
 11
395.0
 21
-65.0
 31
0.0
  0
LINE
  5
860B
330
1E
100
AcDbEntity
  8
12
100
AcDbLine
 10
396.0
 20
-75.0
 30
0.0
 11
396.0
 21
-65.0
 31
0.0
  0
LINE
  5
860C
330
1E
100
AcDbEntity
  8
12
100
AcDbLine
 10
391.0
 20
-74.5
 30
0.0
 11
391.0
 21
-65.5
 31
0.0
  0
LINE
  5
860D
330
1E
100
AcDbEntity
  8
12
100
AcDbLine
 10
396.0
 20
-75.0
 30
0.0
 11
395.0
 21
-75.0
 31
0.0
  0
LINE
  5
860E
330
1E
100
AcDbEntity
  8
12
100
AcDbLine
 10
395.0
 20
-74.5
 30
0.0
 11
391.0
 21
-74.5
 31
0.0
  0
LINE
  5
860F
330
1E
100
AcDbEntity
  8
12
100
AcDbLine
 10
396.0
 20
-65.0
 30
0.0
 11
395.0
 21
-65.0
 31
0.0
  0
LINE
  5
8610
330
1E
100
AcDbEntity
  8
12
100
AcDbLine
 10
395.0
 20
-65.5
 30
0.0
 11
391.0
 21
-65.5
 31
0.0
  0
LINE
  5
8611
330
1E
100
AcDbEntity
  8
12
100
AcDbLine
 10
396.0
 20
65.0
 30
0.0
 11
395.0
 21
65.0
 31
0.0
  0
LINE
  5
8612
330
1E
100
AcDbEntity
  8
12
100
AcDbLine
 10
395.0
 20
65.5
 30
0.0
 11
391.0
 21
65.5
 31
0.0
  0
LINE
  5
8613
330
1E
100
AcDbEntity
  8
10
100
AcDbLine
 10
414.0
 20
157.4999999999995
 30
0.0
 11
414.0
 21
138.0
 31
0.0
  0
LINE
  5
8614
330
1E
100
AcDbEntity
  8
10
100
AcDbLine
 10
401.0
 20
157.4999999999995
 30
0.0
 11
401.0
 21
138.0
 31
0.0
  0
LINE
  5
8615
330
1E
100
AcDbEntity
  8
10
100
AcDbLine
 10
371.0
 20
143.0
 30
0.0
 11
354.0
 21
143.0
 31
0.0
  0
LINE
  5
8616
330
1E
100
AcDbEntity
  8
10
100
AcDbLine
 10
354.0
 20
143.0
 30
0.0
 11
354.0
 21
130.0
 31
0.0
  0
LINE
  5
8617
330
1E
100
AcDbEntity
  8
12
100
AcDbLine
 10
396.0
 20
75.0
 30
0.0
 11
395.0
 21
75.0
 31
0.0
  0
LINE
  5
8618
330
1E
100
AcDbEntity
  8
12
100
AcDbLine
 10
395.0
 20
74.5
 30
0.0
 11
391.0
 21
74.5
 31
0.0
  0
LINE
  5
8619
330
1E
100
AcDbEntity
  8
10
100
AcDbLine
 10
414.0
 20
157.4999999999995
 30
0.0
 11
400.9999999999996
 21
157.4999999999995
 31
0.0
  0
DIMENSION
  5
861A
330
1E
100
AcDbEntity
  8
30
  6
CONTINUOUS
100
AcDbDimension
  2
*D14
 10
476.6062902121223
 20
-90.0
 30
0.0
 11
473.1062902121223
 21
0.0000000000000707
 31
0.0
 70
    32
  3
STANDARD
100
AcDbAlignedDimension
 13
466.0
 23
90.0
 33
0.0
 14
466.0
 24
-90.0
 34
0.0
 50
90.0
100
AcDbRotatedDimension
  0
LINE
  5
861B
330
1E
100
AcDbEntity
  8
12
100
AcDbLine
 10
426.2999999999998
 20
74.39999999999997
 30
0.0
 11
426.2999999999998
 21
65.60000000000002
 31
0.0
  0
LINE
  5
861C
330
1E
100
AcDbEntity
  8
12
100
AcDbLine
 10
420.0
 20
75.0
 30
0.0
 11
420.0
 21
65.0
 31
0.0
  0
LINE
  5
861D
330
1E
100
AcDbEntity
  8
12
100
AcDbLine
 10
421.2999999999998
 20
75.0
 30
0.0
 11
421.2999999999998
 21
65.0
 31
0.0
  0
LINE
  5
861E
330
1E
100
AcDbEntity
  8
12
100
AcDbLine
 10
430.0
 20
-72.5
 30
0.0
 11
430.0
 21
-67.5
 31
0.0
  0
LINE
  5
861F
330
1E
100
AcDbEntity
  8
12
100
AcDbLine
 10
426.2999999999998
 20
-74.39999999999997
 30
0.0
 11
426.2999999999998
 21
-65.60000000000002
 31
0.0
  0
LINE
  5
8620
330
1E
100
AcDbEntity
  8
12
100
AcDbLine
 10
420.0
 20
-75.0
 30
0.0
 11
420.0
 21
-65.0
 31
0.0
  0
LINE
  5
8621
330
1E
100
AcDbEntity
  8
12
100
AcDbLine
 10
421.2999999999998
 20
-75.0
 30
0.0
 11
421.2999999999998
 21
-65.0
 31
0.0
  0
LINE
  5
8622
330
1E
100
AcDbEntity
  8
12
100
AcDbLine
 10
426.2999999999998
 20
-72.19999999999993
 30
0.0
 11
421.2999999999998
 21
-72.19999999999993
 31
0.0
  0
LINE
  5
8623
330
1E
100
AcDbEntity
  8
12
100
AcDbLine
 10
426.2999999999998
 20
-74.39999999999997
 30
0.0
 11
421.2999999999998
 21
-74.39999999999997
 31
0.0
  0
LINE
  5
8624
330
1E
100
AcDbEntity
  8
12
100
AcDbLine
 10
421.2999999999992
 20
-75.0
 30
0.0
 11
419.0
 21
-75.0
 31
0.0
  0
LINE
  5
8625
330
1E
100
AcDbEntity
  8
12
100
AcDbLine
 10
430.0000000000001
 20
-72.5
 30
0.0
 11
426.2999999999998
 21
-72.5
 31
0.0
  0
LINE
  5
8626
330
1E
100
AcDbEntity
  8
12
100
AcDbLine
 10
426.2999999999998
 20
-65.60000000000002
 30
0.0
 11
421.2999999999998
 21
-65.60000000000002
 31
0.0
  0
LINE
  5
8627
330
1E
100
AcDbEntity
  8
12
100
AcDbLine
 10
426.2999999999998
 20
-67.79999999999995
 30
0.0
 11
421.2999999999998
 21
-67.79999999999995
 31
0.0
  0
LINE
  5
8628
330
1E
100
AcDbEntity
  8
12
100
AcDbLine
 10
421.2999999999992
 20
-65.0
 30
0.0
 11
419.0
 21
-65.0
 31
0.0
  0
LINE
  5
8629
330
1E
100
AcDbEntity
  8
12
100
AcDbLine
 10
430.0000000000001
 20
-67.5
 30
0.0
 11
426.2999999999998
 21
-67.5
 31
0.0
  0
LINE
  5
862A
330
1E
100
AcDbEntity
  8
10
100
AcDbLine
 10
466.0
 20
-108.9999999999992
 30
0.0
 11
470.0
 21
-108.9999999999992
 31
0.0
  0
LINE
  5
862B
330
1E
100
AcDbEntity
  8
12
100
AcDbLine
 10
426.2999999999998
 20
65.60000000000002
 30
0.0
 11
421.2999999999998
 21
65.60000000000002
 31
0.0
  0
LINE
  5
862C
330
1E
100
AcDbEntity
  8
12
100
AcDbLine
 10
421.2999999999992
 20
65.0
 30
0.0
 11
419.0
 21
65.0
 31
0.0
  0
LINE
  5
862D
330
1E
100
AcDbEntity
  8
12
100
AcDbLine
 10
426.2999999999998
 20
72.20000000000005
 30
0.0
 11
421.2999999999998
 21
72.20000000000005
 31
0.0
  0
LINE
  5
862E
330
1E
100
AcDbEntity
  8
12
100
AcDbLine
 10
426.2999999999998
 20
74.39999999999997
 30
0.0
 11
421.2999999999998
 21
74.39999999999997
 31
0.0
  0
LINE
  5
862F
330
1E
100
AcDbEntity
  8
12
100
AcDbLine
 10
426.2999999999998
 20
67.79999999999984
 30
0.0
 11
421.2999999999998
 21
67.79999999999984
 31
0.0
  0
LINE
  5
8630
330
1E
100
AcDbEntity
  8
12
100
AcDbLine
 10
421.2999999999992
 20
75.0
 30
0.0
 11
419.0
 21
75.0
 31
0.0
  0
LINE
  5
8631
330
1E
100
AcDbEntity
  8
12
100
AcDbLine
 10
430.0000000000001
 20
72.5
 30
0.0
 11
426.2999999999998
 21
72.5
 31
0.0
  0
LINE
  5
8632
330
1E
100
AcDbEntity
  8
12
100
AcDbLine
 10
430.0000000000001
 20
67.5
 30
0.0
 11
426.2999999999998
 21
67.5
 31
0.0
  0
LINE
  5
8633
330
1E
100
AcDbEntity
  8
12
100
AcDbLine
 10
430.0
 20
72.5
 30
0.0
 11
430.0
 21
67.5
 31
0.0
  0
LINE
  5
8634
330
1E
100
AcDbEntity
  8
10
100
AcDbLine
 10
470.0
 20
119.0000000000005
 30
0.0
 11
470.0
 21
109.0000000000006
 31
0.0
  0
LINE
  5
8635
330
1E
100
AcDbEntity
  8
10
100
AcDbLine
 10
466.0
 20
138.0
 30
0.0
 11
466.0
 21
90.00000000000012
 31
0.0
  0
LINE
  5
8636
330
1E
100
AcDbEntity
  8
10
100
AcDbLine
 10
470.0
 20
109.0000000000006
 30
0.0
 11
466.0
 21
109.0000000000006
 31
0.0
  0
LINE
  5
8637
330
1E
100
AcDbEntity
  8
10
100
AcDbLine
 10
470.0
 20
119.0000000000005
 30
0.0
 11
466.0
 21
119.0000000000005
 31
0.0
  0
MTEXT
  5
8780
330
1E
100
AcDbEntity
  8
30
  6
CONTINUOUS
100
AcDbMText
 10
335.9999999999993
 20
271.0
 30
0.0
 40
5.0
 41
0.0
 71
     1
 72
     1
  1
\A1;
1001
ACAD
1000
MTEXTBEGIN
1070
    73
1070
     1
1070
    44
1040
1.0
1070
    74
1070
     0
1000
MTEXTEND
1000
MTEXTBEGIN
1070
    73
1070
     1
1070
    44
1040
1.0
1070
    74
1070
     0
1000
MTEXTEND
1000
MTEXTBEGIN
1070
    73
1070
     1
1070
    44
1040
1.0
1070
    74
1070
     0
1000
MTEXTEND
  0
MTEXT
  5
87D0
330
1E
100
AcDbEntity
  8
19
  6
CONTINUOUS
100
AcDbMText
 10
305.9999999999996
 20
246.4999999999998
 30
0.0
 40
7.0
 41
94.0
 71
     1
 72
     5
  1
H400-NJ 3P PM\PL400-NJ 3P PM\PH400-NE 3P PM\PL400-NE 3P PM
  7
STANDARD1
1001
ACAD
1000
MTEXTBEGIN
1070
    73
1070
     1
1070
    44
1040
1.0
1070
    74
1070
     0
1000
MTEXTEND
1000
MTEXTBEGIN
1070
    73
1070
     1
1070
    44
1040
1.0
1070
    74
1070
     0
1000
MTEXTEND
1000
MTEXTBEGIN
1070
    73
1070
     1
1070
    44
1040
1.0
1070
    74
1070
     0
1000
MTEXTEND
  0
DIMENSION
  5
899E
330
1E
100
AcDbEntity
  8
30
  6
CONTINUOUS
100
AcDbDimension
  2
*D21
 10
452.4999999999998
 20
-445.5862800174945
 30
0.0
 11
437.4999999999998
 21
-442.0862800174945
 31
0.0
 70
    32
  3
STANDARD
100
AcDbAlignedDimension
 13
422.4999999999998
 23
-430.0
 33
0.0
 14
452.4999999999998
 24
-430.0
 34
0.0
100
AcDbRotatedDimension
1001
ACAD
1000
DSTYLE
1002
{
1070
    79
1070
     3
1002
}
  0
ARC
  5
899F
330
1E
100
AcDbEntity
  8
24
  6
CONTINOUS
100
AcDbCircle
 10
424.3456855852391
 20
-415.9532920604572
 30
0.0
 40
22.59903724617389
100
AcDbArc
 50
78.93706202154437
 51
94.494317680383
  0
LINE
  5
89A0
330
1E
100
AcDbEntity
  8
24
  6
CONTINOUS
100
AcDbLine
 10
422.4999999999998
 20
-430.0
 30
0.0
 11
452.4999999999998
 21
-430.0
 31
0.0
  0
LINE
  5
89A1
330
1E
100
AcDbEntity
  8
24
  6
CONTINOUS
100
AcDbLine
 10
422.4999999999998
 20
-392.8587178091
 30
0.0
 11
422.4999999999998
 21
-430.0
 31
0.0
  0
DIMENSION
  5
89A2
330
1E
100
AcDbEntity
  8
30
  6
CONTINUOUS
100
AcDbDimension
  2
*D22
 10
434.0569268515978
 20
-414.2889680920655
 30
0.0
 11
461.9648401337991
 21
-386.9987140134608
 31
0.0
 70
   163
  3
STANDARD
100
AcDbDiametricDimension
 15
440.9430731484007
 25
-405.7110319079347
 35
0.0
 40
0.0
1001
ACAD
1000
DSTYLE
1002
{
1070
    79
1070
     3
1070
   288
1070
     1
1002
}
  0
DIMENSION
  5
89A3
330
1E
100
AcDbEntity
  8
30
  6
CONTINUOUS
100
AcDbDimension
  2
*D23
 10
468.9423296781886
 20
-410.0
 30
0.0
 11
465.4423296781888
 21
-419.9999999999999
 31
0.0
 70
    32
  3
STANDARD
100
AcDbAlignedDimension
 13
452.4999999999998
 23
-430.0
 33
0.0
 14
444.9999999999995
 24
-410.0
 34
0.0
 50
90.0
100
AcDbRotatedDimension
1001
ACAD
1000
DSTYLE
1002
{
1070
    79
1070
     3
1002
}
  0
LINE
  5
89A4
330
1E
100
AcDbEntity
  8
24
  6
CONTINOUS
100
AcDbLine
 10
452.4999999999998
 20
-394.3500965008307
 30
0.0
 11
452.4999999999998
 21
-430.0
 31
0.0
  0
ARC
  5
89A5
330
1E
100
AcDbEntity
  8
24
  6
CONTINOUS
100
AcDbCircle
 10
442.4875818209463
 20
-389.5040819711523
 30
0.0
 40
7.5
100
AcDbArc
 50
251.3586110284597
 51
294.2039969225343
  0
LINE
  5
89A6
330
1E
100
AcDbEntity
  8
24
  6
CONTINOUS
100
AcDbLine
 10
429.9999999999997
 20
-410.0
 30
0.0
 11
444.9999999999995
 21
-410.0
 31
0.0
  0
CIRCLE
  5
89A7
330
1E
100
AcDbEntity
  8
24
  6
CONTINOUS
100
AcDbCircle
 10
437.4999999999997
 20
-410.0
 30
0.0
 40
5.5
  0
LINE
  5
89A8
330
1E
100
AcDbEntity
  8
24
  6
CONTINOUS
100
AcDbLine
 10
437.4999999999997
 20
-402.5000000000002
 30
0.0
 11
437.5
 21
-417.5000000000001
 31
0.0
  0
LINE
  5
89A9
330
1E
100
AcDbEntity
  8
24
  6
CONTINOUS
100
AcDbLine
 10
428.6821509528971
 20
-393.7742128963201
 30
0.0
 11
440.0902528026056
 21
-396.6106151328153
 31
0.0
  0
LINE
  5
89AA
330
1E
100
AcDbEntity
  8
24
  6
CONTINOUS
100
AcDbLine
 10
445.5624817848158
 20
-396.3447683557335
 30
0.0
 11
452.4999999999998
 21
-394.3500965008307
 31
0.0
  0
LINE
  5
89AB
330
1E
100
AcDbEntity
  8
10
100
AcDbLine
 10
196.9999999999799
 20
-455.4999999999999
 30
0.0
 11
219.0000000000003
 21
-455.4999999999999
 31
0.0
  0
LINE
  5
89AC
330
1E
100
AcDbEntity
  8
10
100
AcDbLine
 10
207.0000000000002
 20
-468.5
 30
0.0
 11
224.0000000000003
 21
-468.5
 31
0.0
  0
SPLINE
  5
89AD
330
1E
100
AcDbEntity
  8
10
100
AcDbSpline
210
0.0
220
0.0
230
1.0
 70
     8
 71
     3
 72
    14
 73
    10
 74
     0
 42
0.0000000001
 43
0.0000000001
 40
0.0
 40
0.0
 40
0.0
 40
0.0
 40
0.1428571428571429
 40
0.2857142857142857
 40
0.4285714285714289
 40
0.5714285714285714
 40
0.7142857142857145
 40
0.8571428571428571
 40
1.0
 40
1.0
 40
1.0
 40
1.0
 10
267.0000000000002
 20
-360.5000000000001
 30
0.0
 10
254.0000000000002
 20
-370.4999999999993
 30
0.0
 10
234.0000000000002
 20
-368.4999999999993
 30
0.0
 10
230.0000000000003
 20
-386.4999999999993
 30
0.0
 10
206.0000000000003
 20
-386.4999999999993
 30
0.0
 10
200.0000000000003
 20
-406.4999999999993
 30
0.0
 10
192.0000000000003
 20
-414.4999999999994
 30
0.0
 10
200.0000000000003
 20
-428.4999999999993
 30
0.0
 10
190.0000000000003
 20
-442.4999999999993
 30
0.0
 10
197.0000000000003
 20
-455.4999999999999
 30
0.0
  0
LINE
  5
89AE
330
1E
100
AcDbEntity
  8
10
100
AcDbLine
 10
207.0000000000002
 20
-455.4999999999999
 30
0.0
 11
207.0000000000002
 21
-468.5
 31
0.0
  0
TEXT
  5
89AF
330
1E
100
AcDbEntity
  8
30
100
AcDbText
 10
341.8975598414476
 20
-486.1824020802152
 30
0.0
 40
5.0
  1
30 max. conductor width
 41
0.8216911764705923
  7
UGMTXT
100
AcDbText
  0
LEADER
  5
89B0
330
1E
100
AcDbEntity
  8
30
  6
CONTINUOUS
100
AcDbLeader
  3
STANDARD
 40
5.0
 76
     3
 10
327.5000000000001
 20
-468.4999999999994
 30
0.0
 10
340.0
 20
-488.0
 30
0.0
 10
419.0
 20
-488.0
 30
0.0
213
0.0
223
-2.5
233
0.0
1001
ACAD
1000
DSTYLE
1002
{
1070
     5
1000
OPEN
1070
    77
1070
     0
1070
   147
1040
1.0
1070
   342
1005
3B2
1002
}
  0
LEADER
  5
89B1
330
1E
100
AcDbEntity
  8
30
  6
CONTINUOUS
100
AcDbLeader
  3
STANDARD
 73
     0
 40
5.0
 76
     3
 10
297.5000000000003
 20
-448.4999999999993
 30
0.0
 10
290.0
 20
-486.0
 30
0.0
 10
316.0
 20
-486.0
 30
0.0
340
89B2
213
-127.0
223
-4.5
233
0.0
1001
ACAD
1000
DSTYLE
1002
{
1070
     5
1000
OPEN
1070
    77
1070
     0
1070
   147
1040
1.0
1070
   342
1005
3B2
1002
}
  0
MTEXT
  5
89B2
102
{ACAD_REACTORS
330
89B1
102
}
330
1E
100
AcDbEntity
  8
30
  6
CONTINUOUS
100
AcDbMText
 10
329.0
 20
279.4999999999999
 30
0.0
 40
5.0
 41
0.0
 71
     1
 72
     1
  1
\A1;
1001
ACAD
1000
MTEXTBEGIN
1070
    73
1070
     1
1070
    44
1040
1.0
1070
    74
1070
     0
1000
MTEXTEND
1000
MTEXTBEGIN
1070
    73
1070
     1
1070
    44
1040
1.0
1070
    74
1070
     0
1000
MTEXTEND
1000
MTEXTBEGIN
1070
    73
1070
     1
1070
    44
1040
1.0
1070
    74
1070
     0
1000
MTEXTEND
  0
DIMENSION
  5
89B3
330
1E
100
AcDbEntity
  8
30
  6
CONTINUOUS
100
AcDbDimension
  2
*D15
 10
323.0000000000003
 20
-502.1666666666667
 30
0.0
 11
305.0000000000003
 21
-498.6666666666667
 31
0.0
 70
    32
  3
STANDARD
100
AcDbAlignedDimension
 13
287.0000000000003
 23
-463.4999999999999
 33
0.0
 14
323.0000000000003
 24
-444.4999999999994
 34
0.0
100
AcDbRotatedDimension
  0
DIMENSION
  5
89B4
330
1E
100
AcDbEntity
  8
30
  6
CONTINUOUS
100
AcDbDimension
  2
*D16
 10
287.0000000000003
 20
-501.6666666666666
 30
0.0
 11
277.0000000000002
 21
-498.1666666666667
 31
0.0
 70
    32
  3
STANDARD
100
AcDbAlignedDimension
 13
267.0000000000002
 23
-483.0
 33
0.0
 14
287.0000000000003
 24
-451.4999999999993
 34
0.0
100
AcDbRotatedDimension
  0
DIMENSION
  5
89B5
330
1E
100
AcDbEntity
  8
30
  6
CONTINUOUS
100
AcDbDimension
  2
*D17
 10
267.0000000000002
 20
-501.6666666666666
 30
0.0
 11
245.5000000000002
 21
-498.1666666666667
 31
0.0
 70
    32
  3
STANDARD
100
AcDbAlignedDimension
 13
224.0000000000003
 23
-468.5
 33
0.0
 14
267.0000000000002
 24
-463.4999999999999
 34
0.0
100
AcDbRotatedDimension
  0
DIMENSION
  5
89B6
330
1E
100
AcDbEntity
  8
30
  6
CONTINUOUS
100
AcDbDimension
  2
*D18
 10
224.0000000000003
 20
-502.0
 30
0.0
 11
212.3333333333336
 21
-502.0
 31
0.0
 70
   160
  3
STANDARD
100
AcDbAlignedDimension
 13
219.0000000000003
 23
-455.4999999999999
 33
0.0
 14
224.0000000000003
 24
-463.4999999999999
 34
0.0
100
AcDbRotatedDimension
  0
TEXT
  5
89B7
330
1E
100
AcDbEntity
  8
30
100
AcDbText
 10
291.8975598414474
 20
-484.1824020802151
 30
0.0
 40
5.0
  1
M10 nut
 41
0.8216911764705923
  7
UGMTXT
100
AcDbText
  0
LINE
  5
89B8
330
1E
100
AcDbEntity
  8
10
100
AcDbLine
 10
254.0000000000002
 20
-463.4999999999998
 30
0.0
 11
254.0000000000002
 21
-483.0
 31
0.0
  0
LINE
  5
89B9
330
1E
100
AcDbEntity
  8
10
100
AcDbLine
 10
267.0000000000002
 20
-463.4999999999998
 30
0.0
 11
267.0000000000002
 21
-483.0
 31
0.0
  0
LINE
  5
89BA
330
1E
100
AcDbEntity
  8
10
100
AcDbLine
 10
254.0
 20
-483.0
 30
0.0
 11
267.0000000000002
 21
-483.0
 31
0.0
  0
TEXT
  5
89BB
330
1E
100
AcDbEntity
  8
30
100
AcDbText
 10
350.098074945947
 20
-439.2009315871922
 30
0.0
 40
5.0
  1
20 (max.)
 50
90.0
 41
0.8216911764705923
  7
UGMTXT
100
AcDbText
  0
LINE
  5
89BC
330
1E
100
AcDbEntity
  8
10
100
AcDbLine
 10
224.0000000000003
 20
-415.5
 30
0.0
 11
319.0000000000001
 21
-415.5
 31
0.0
  0
DIMENSION
  5
89BD
330
1E
100
AcDbEntity
  8
30
  6
CONTINUOUS
100
AcDbDimension
  2
*D19
 10
283.0000000000004
 20
-350.0
 30
0.0
 11
275.0000000000003
 21
-346.4999999999999
 31
0.0
 70
    32
  3
STANDARD
100
AcDbAlignedDimension
 13
267.0000000000002
 23
-370.5
 33
0.0
 14
283.0000000000004
 24
-393.0
 34
0.0
100
AcDbRotatedDimension
  0
LINE
  5
89BE
330
1E
100
AcDbEntity
  8
10
100
AcDbLine
 10
307.0000000000003
 20
-370.5
 30
0.0
 11
267.0000000000002
 21
-370.5
 31
0.0
  0
LINE
  5
89BF
330
1E
100
AcDbEntity
  8
10
100
AcDbLine
 10
307.0000000000003
 20
-375.4999999999999
 30
0.0
 11
277.0000000000003
 21
-375.4999999999999
 31
0.0
  0
LINE
  5
89C0
330
1E
100
AcDbEntity
  8
12
100
AcDbLine
 10
279.3000000000002
 20
-391.1000000000001
 30
0.0
 11
274.3000000000001
 21
-391.1000000000001
 31
0.0
  0
LINE
  5
89C1
330
1E
100
AcDbEntity
  8
12
100
AcDbLine
 10
279.3000000000002
 20
-393.3
 30
0.0
 11
274.3000000000001
 21
-393.3
 31
0.0
  0
LINE
  5
89C2
330
1E
100
AcDbEntity
  8
12
100
AcDbLine
 10
279.3000000000002
 20
-397.7000000000001
 30
0.0
 11
274.3000000000001
 21
-397.7000000000001
 31
0.0
  0
LINE
  5
89C3
330
1E
100
AcDbEntity
  8
12
100
AcDbLine
 10
279.3000000000002
 20
-399.9000000000001
 30
0.0
 11
274.3000000000001
 21
-399.9000000000001
 31
0.0
  0
LINE
  5
89C4
330
1E
100
AcDbEntity
  8
12
100
AcDbLine
 10
274.6608695874342
 20
-427.4999999999993
 30
0.0
 11
287.0000000000004
 21
-427.4999999999993
 31
0.0
  0
LINE
  5
89C5
330
1E
100
AcDbEntity
  8
12
100
AcDbLine
 10
274.4919038134111
 20
-451.4999999999993
 30
0.0
 11
287.0000000000004
 21
-451.4999999999993
 31
0.0
  0
LINE
  5
89C6
330
1E
100
AcDbEntity
  8
10
100
AcDbLine
 10
224.0000000000003
 20
-463.4999999999999
 30
0.0
 11
288.6076951545874
 21
-463.4999999999999
 31
0.0
  0
LINE
  5
89C7
330
1E
100
AcDbEntity
  8
12
100
AcDbLine
 10
273.0000000000003
 20
-400.5000000000001
 30
0.0
 11
273.0000000000003
 21
-390.5
 31
0.0
  0
LINE
  5
89C8
330
1E
100
AcDbEntity
  8
12
100
AcDbLine
 10
274.3000000000001
 20
-400.5000000000001
 30
0.0
 11
274.3000000000001
 21
-390.5
 31
0.0
  0
LINE
  5
89C9
330
1E
100
AcDbEntity
  8
10
100
AcDbLine
 10
272.0000000000003
 20
-410.5000000000003
 30
0.0
 11
272.0000000000003
 21
-380.5
 31
0.0
  0
LINE
  5
89CA
330
1E
100
AcDbEntity
  8
10
100
AcDbLine
 10
267.0000000000002
 20
-360.5000000000001
 30
0.0
 11
267.0000000000002
 21
-415.5
 31
0.0
  0
LINE
  5
89CB
330
1E
100
AcDbEntity
  8
12
100
AcDbLine
 10
244.0000000000003
 20
-400.0
 30
0.0
 11
244.0000000000003
 21
-390.9999999999998
 31
0.0
  0
LINE
  5
89CC
330
1E
100
AcDbEntity
  8
12
100
AcDbLine
 10
248.0000000000003
 20
-400.5000000000001
 30
0.0
 11
248.0000000000003
 21
-390.5
 31
0.0
  0
LINE
  5
89CD
330
1E
100
AcDbEntity
  8
12
100
AcDbLine
 10
249.0000000000003
 20
-400.5000000000001
 30
0.0
 11
249.0000000000003
 21
-390.5
 31
0.0
  0
LINE
  5
89CE
330
1E
100
AcDbEntity
  8
10
100
AcDbLine
 10
219.0000000000003
 20
-386.2844800056313
 30
0.0
 11
219.0000000000003
 21
-455.4999999999999
 31
0.0
  0
LINE
  5
89CF
330
1E
100
AcDbEntity
  8
10
100
AcDbLine
 10
224.0000000000003
 20
-384.8120750703433
 30
0.0
 11
224.0000000000003
 21
-468.5
 31
0.0
  0
SPLINE
  5
89D0
330
1E
100
AcDbEntity
  8
10
100
AcDbSpline
210
0.0
220
0.0
230
1.0
 70
     8
 71
     3
 72
     9
 73
     5
 74
     0
 42
0.0000000001
 43
0.0000000001
 40
0.0
 40
0.0
 40
0.0
 40
0.0
 40
0.5
 40
1.0
 40
1.0
 40
1.0
 40
1.0
 10
277.0000000000003
 20
-415.5
 30
0.0
 10
272.0000000000003
 20
-424.4999999999993
 30
0.0
 10
280.0000000000003
 20
-436.4999999999993
 30
0.0
 10
272.0000000000003
 20
-450.4999999999993
 30
0.0
 10
277.0000000000003
 20
-463.4999999999999
 30
0.0
  0
LINE
  5
89D1
330
1E
100
AcDbEntity
  8
12
100
AcDbLine
 10
272.0000000000003
 20
-393.0
 30
0.0
 11
249.0000000000003
 21
-393.0
 31
0.0
  0
LINE
  5
89D2
330
1E
100
AcDbEntity
  8
12
100
AcDbLine
 10
272.0000000000003
 20
-398.0
 30
0.0
 11
249.0000000000003
 21
-398.0
 31
0.0
  0
LINE
  5
89D3
330
1E
100
AcDbEntity
  8
12
100
AcDbLine
 10
248.0000000000003
 20
-400.0
 30
0.0
 11
244.0000000000003
 21
-400.0
 31
0.0
  0
LINE
  5
89D4
330
1E
100
AcDbEntity
  8
12
100
AcDbLine
 10
249.0000000000003
 20
-400.5000000000001
 30
0.0
 11
248.0000000000003
 21
-400.5000000000001
 31
0.0
  0
LINE
  5
89D5
330
1E
100
AcDbEntity
  8
10
100
AcDbLine
 10
272.0000000000003
 20
-410.5000000000002
 30
0.0
 11
267.0000000000002
 21
-410.5000000000002
 31
0.0
  0
LINE
  5
89D6
330
1E
100
AcDbEntity
  8
12
100
AcDbLine
 10
274.2999999999994
 20
-400.5000000000001
 30
0.0
 11
272.0000000000003
 21
-400.5000000000001
 31
0.0
  0
LINE
  5
89D7
330
1E
100
AcDbEntity
  8
12
100
AcDbLine
 10
248.0000000000003
 20
-391.0
 30
0.0
 11
244.0000000000003
 21
-391.0
 31
0.0
  0
LINE
  5
89D8
330
1E
100
AcDbEntity
  8
12
100
AcDbLine
 10
249.0000000000003
 20
-390.5
 30
0.0
 11
248.0000000000003
 21
-390.5
 31
0.0
  0
ARC
  5
89D9
330
1E
100
AcDbEntity
  8
10
100
AcDbCircle
 10
-277.0000000000003
 20
-380.5
 30
0.0
 40
5.0
210
0.0
220
0.0
230
-1.0
100
AcDbArc
 50
0.0
 51
90.0
  0
LINE
  5
89DA
330
1E
100
AcDbEntity
  8
12
100
AcDbLine
 10
274.2999999999994
 20
-390.5
 30
0.0
 11
272.0000000000003
 21
-390.5
 31
0.0
  0
LINE
  5
89DB
330
1E
100
AcDbEntity
  8
12
100
AcDbLine
 10
279.3000000000002
 20
-399.9000000000001
 30
0.0
 11
279.3000000000002
 21
-391.0999999999998
 31
0.0
  0
LINE
  5
89DC
330
1E
100
AcDbEntity
  8
12
100
AcDbLine
 10
287.0000000000003
 20
-434.4999999999993
 30
0.0
 11
319.0000000000001
 21
-434.4999999999993
 31
0.0
  0
LINE
  5
89DD
330
1E
100
AcDbEntity
  8
10
100
AcDbLine
 10
299.0000000000003
 20
-463.4999999999993
 30
0.0
 11
333.0000000000002
 21
-463.4999999999993
 31
0.0
  0
LINE
  5
89DE
330
1E
100
AcDbEntity
  8
10
100
AcDbLine
 10
299.0000000000003
 20
-469.4999999999994
 30
0.0
 11
333.0000000000002
 21
-469.4999999999994
 31
0.0
  0
LINE
  5
89DF
330
1E
100
AcDbEntity
  8
10
100
AcDbLine
 10
299.0000000000003
 20
-463.4999999999999
 30
0.0
 11
319.0000000000001
 21
-463.4999999999999
 31
0.0
  0
LINE
  5
89E0
330
1E
100
AcDbEntity
  8
10
100
AcDbLine
 10
299.0000000000003
 20
-425.4999999999993
 30
0.0
 11
333.0000000000002
 21
-425.4999999999993
 31
0.0
  0
LINE
  5
89E1
330
1E
100
AcDbEntity
  8
10
100
AcDbLine
 10
299.0000000000003
 20
-419.4999999999994
 30
0.0
 11
333.0000000000002
 21
-419.4999999999994
 31
0.0
  0
LINE
  5
89E2
330
1E
100
AcDbEntity
  8
10
100
AcDbLine
 10
299.0000000000003
 20
-425.5
 30
0.0
 11
319.0000000000001
 21
-425.5
 31
0.0
  0
LINE
  5
89E3
330
1E
100
AcDbEntity
  8
12
100
AcDbLine
 10
287.0000000000003
 20
-444.4999999999994
 30
0.0
 11
319.0000000000001
 21
-444.4999999999994
 31
0.0
  0
LINE
  5
89E4
330
1E
100
AcDbEntity
  8
10
100
AcDbLine
 10
287.0000000000003
 20
-431.4999999999993
 30
0.0
 11
287.0000000000003
 21
-457.4999999999993
 31
0.0
  0
LINE
  5
89E5
330
1E
100
AcDbEntity
  8
10
100
AcDbLine
 10
293.0000000000003
 20
-430.4999999999993
 30
0.0
 11
293.0000000000003
 21
-457.4999999999993
 31
0.0
  0
LINE
  5
89E6
330
1E
100
AcDbEntity
  8
12
100
AcDbLine
 10
297.5000000000003
 20
-430.4999999999991
 30
0.0
 11
297.5000000000003
 21
-448.4999999999993
 31
0.0
  0
LINE
  5
89E7
330
1E
100
AcDbEntity
  8
12
100
AcDbLine
 10
306.5000000000002
 20
-430.5999999999993
 30
0.0
 11
306.5000000000002
 21
-448.3999999999991
 31
0.0
  0
LINE
  5
89E8
330
1E
100
AcDbEntity
  8
12
100
AcDbLine
 10
295.0000000000003
 20
-430.4999999999991
 30
0.0
 11
295.0000000000003
 21
-448.4999999999993
 31
0.0
  0
LINE
  5
89E9
330
1E
100
AcDbEntity
  8
12
100
AcDbLine
 10
287.0000000000003
 20
-427.4999999999993
 30
0.0
 11
287.0000000000003
 21
-451.4999999999993
 31
0.0
  0
ARC
  5
89EA
330
1E
100
AcDbEntity
  8
10
100
AcDbCircle
 10
299.0000000000003
 20
-457.4999999999993
 30
0.0
 40
6.0
100
AcDbArc
 50
180.0
 51
270.0
  0
ARC
  5
89EB
330
1E
100
AcDbEntity
  8
10
100
AcDbCircle
 10
299.0000000000003
 20
-457.4999999999993
 30
0.0
 40
12.0
100
AcDbArc
 50
180.0
 51
270.0
  0
LINE
  5
89EC
330
1E
100
AcDbEntity
  8
12
100
AcDbLine
 10
293.0000000000003
 20
-448.4999999999993
 30
0.0
 11
297.5000000000003
 21
-448.4999999999993
 31
0.0
  0
LINE
  5
89EE
330
1E
100
AcDbEntity
  8
12
100
AcDbLine
 10
297.5000000000003
 20
-443.9499999999991
 30
0.0
 11
306.5000000000002
 21
-443.9499999999991
 31
0.0
  0
LINE
  5
89EF
330
1E
100
AcDbEntity
  8
12
100
AcDbLine
 10
297.5000000000003
 20
-448.3999999999991
 30
0.0
 11
306.5000000000002
 21
-448.3999999999991
 31
0.0
  0
ARC
  5
89F0
330
1E
100
AcDbEntity
  8
10
100
AcDbCircle
 10
299.0000000000003
 20
-431.4999999999993
 30
0.0
 40
6.0
100
AcDbArc
 50
90.0
 51
180.0
  0
ARC
  5
89F1
330
1E
100
AcDbEntity
  8
10
100
AcDbCircle
 10
299.0000000000003
 20
-431.4999999999993
 30
0.0
 40
12.0
100
AcDbArc
 50
90.0
 51
180.0
  0
LINE
  5
89F2
330
1E
100
AcDbEntity
  8
12
100
AcDbLine
 10
293.0000000000003
 20
-430.4999999999993
 30
0.0
 11
297.5000000000003
 21
-430.4999999999993
 31
0.0
  0
LINE
  5
89F3
330
1E
100
AcDbEntity
  8
18
100
AcDbLine
 10
287.0000000000003
 20
-434.4999999999993
 30
0.0
 11
293.0000000000003
 21
-434.4999999999993
 31
0.0
  0
LINE
  5
89F4
330
1E
100
AcDbEntity
  8
12
100
AcDbLine
 10
283.0000000000003
 20
-397.9999999999997
 30
0.0
 11
283.0000000000003
 21
-392.9999999999998
 31
0.0
  0
LINE
  5
89F5
330
1E
100
AcDbEntity
  8
12
100
AcDbLine
 10
283.0000000000004
 20
-393.0
 30
0.0
 11
279.3000000000002
 21
-393.0
 31
0.0
  0
LINE
  5
89F6
330
1E
100
AcDbEntity
  8
12
100
AcDbLine
 10
283.0000000000004
 20
-398.0
 30
0.0
 11
279.3000000000002
 21
-398.0
 31
0.0
  0
LINE
  5
89F7
330
1E
100
AcDbEntity
  8
12
100
AcDbLine
 10
297.5000000000003
 20
-435.0499999999994
 30
0.0
 11
306.5000000000002
 21
-435.0499999999994
 31
0.0
  0
LINE
  5
89F8
330
1E
100
AcDbEntity
  8
12
100
AcDbLine
 10
297.5000000000003
 20
-430.5999999999993
 30
0.0
 11
306.5000000000002
 21
-430.5999999999993
 31
0.0
  0
DIMENSION
  5
89F9
330
1E
100
AcDbEntity
  8
30
  6
CONTINUOUS
100
AcDbDimension
  2
*D20
 10
341.9999999999999
 20
-419.4999999999994
 30
0.0
 11
342.0
 21
-427.0
 31
0.0
 70
   160
  1
 
  3
STANDARD
100
AcDbAlignedDimension
 13
323.0000000000003
 23
-439.4999999999993
 33
0.0
 14
333.0000000000002
 24
-419.4999999999994
 34
0.0
 50
90.0
100
AcDbRotatedDimension
  0
LINE
  5
89FA
330
1E
100
AcDbEntity
  8
12
100
AcDbLine
 10
323.0000000000003
 20
-434.4999999999993
 30
0.0
 11
323.0000000000003
 21
-444.4999999999992
 31
0.0
  0
SPLINE
  5
89FB
330
1E
100
AcDbEntity
  8
10
100
AcDbSpline
210
0.0
220
0.0
230
1.0
 70
     8
 71
     3
 72
     8
 73
     4
 74
     0
 42
0.0000000001
 43
0.0000000001
 40
0.0
 40
0.0
 40
0.0
 40
0.0
 40
1.0
 40
1.0
 40
1.0
 40
1.0
 10
333.0000000000002
 20
-463.4999999999993
 30
0.0
 10
334.0000000000001
 20
-466.4999999999992
 30
0.0
 10
332.0000000000001
 20
-466.4999999999992
 30
0.0
 10
333.0000000000002
 20
-469.4999999999994
 30
0.0
  0
LINE
  5
89FC
330
1E
100
AcDbEntity
  8
10
100
AcDbLine
 10
319.0000000000001
 20
-444.4999999999994
 30
0.0
 11
319.0000000000001
 21
-463.4999999999998
 31
0.0
  0
LINE
  5
89FD
330
1E
100
AcDbEntity
  8
12
100
AcDbLine
 10
319.0000000000001
 20
-444.4999999999994
 30
0.0
 11
323.0000000000003
 21
-444.4999999999994
 31
0.0
  0
SPLINE
  5
89FE
330
1E
100
AcDbEntity
  8
10
100
AcDbSpline
210
0.0
220
0.0
230
1.0
 70
     8
 71
     3
 72
     8
 73
     4
 74
     0
 42
0.0000000001
 43
0.0000000001
 40
0.0
 40
0.0
 40
0.0
 40
0.0
 40
1.0
 40
1.0
 40
1.0
 40
1.0
 10
333.0000000000002
 20
-419.4999999999994
 30
0.0
 10
334.0000000000001
 20
-422.4999999999993
 30
0.0
 10
332.0000000000001
 20
-422.4999999999993
 30
0.0
 10
333.0000000000002
 20
-425.4999999999993
 30
0.0
  0
LINE
  5
89FF
330
1E
100
AcDbEntity
  8
10
100
AcDbLine
 10
319.0000000000001
 20
-415.5
 30
0.0
 11
319.0000000000001
 21
-434.4999999999993
 31
0.0
  0
LINE
  5
8A00
330
1E
100
AcDbEntity
  8
12
100
AcDbLine
 10
319.0000000000001
 20
-434.4999999999993
 30
0.0
 11
323.0000000000003
 21
-434.4999999999993
 31
0.0
  0
LINE
  5
8A01
330
1E
100
AcDbEntity
  8
10
100
AcDbLine
 10
307.0000000000003
 20
-375.4999999999999
 30
0.0
 11
307.0000000000003
 21
-370.5
 31
0.0
  0
VIEWPORT
  5
9AC
330
1A
100
AcDbEntity
 67
     1
  8
0
  6
CONTINUOUS
100
AcDbViewport
 10
171.9995348790992
 20
144.1384735538403
 30
0.0
 40
488.8676857773511
 41
292.3514905034161
 68
     1
 69
     1
1001
ACAD
1000
MVIEW
1002
{
1070
    16
1010
0.0
1020
0.0
1030
0.0
1010
0.0
1020
0.0
1030
1.0
1040
0.0
1040
292.3514905034161
1040
171.9995348790992
1040
144.1384735538403
1040
50.0
1040
0.0
1040
0.0
1070
     0
1070
   100
1070
     1
1070
     1
1070
     0
1070
     0
1070
     0
1070
     0
1040
0.0
1040
0.0
1040
0.0
1040
10.0
1040
10.0
1040
10.0
1040
10.0
1070
     0
1002
{
1002
}
1002
}
  0
ENDSEC
  0
SECTION
  2
OBJECTS
  0
DICTIONARY
  5
C
330
0
100
AcDbDictionary
  3
ACAD_GROUP
350
D
  3
ACAD_LAYOUT
350
19
  3
ACAD_MLINESTYLE
350
16
  3
ACAD_PLOTSETTINGS
350
18
  3
ACAD_PLOTSTYLENAME
350
E
  3
ACDBHEADERROUNDTRIPXREC
350
8B96
  3
ACDBVARIABLEDICTIONARY
350
69C9
  0
DICTIONARY
  5
178
330
1E
100
AcDbDictionary
280
     1
  3
ACAD_LAYOUTSELFREF
360
8BB8
  0
DICTIONARY
  5
17A
330
1A
100
AcDbDictionary
280
     1
  3
ACAD_LAYOUTSELFREF
360
8BB7
  0
DICTIONARY
  5
D
102
{ACAD_REACTORS
330
C
102
}
330
C
100
AcDbDictionary
  0
DICTIONARY
  5
19
102
{ACAD_REACTORS
330
C
102
}
330
C
100
AcDbDictionary
  0
DICTIONARY
  5
16
102
{ACAD_REACTORS
330
C
102
}
330
C
100
AcDbDictionary
  3
STANDARD
350
17
  0
DICTIONARY
  5
18
102
{ACAD_REACTORS
330
C
102
}
330
C
100
AcDbDictionary
  0
ACDBDICTIONARYWDFLT
  5
E
102
{ACAD_REACTORS
330
C
102
}
330
C
100
AcDbDictionary
281
     1
  3
Normal
350
F
100
AcDbDictionaryWithDefault
340
F
  0
DICTIONARY
  5
8B96
102
{ACAD_REACTORS
330
C
102
}
330
C
100
AcDbDictionary
  3
CEPSNTYPE
350
8BA0
  3
DIMSTYLEDATA
350
8BA4
  3
FINGERPRINTGUID
350
8BA1
  3
HYPERLINKBASE
350
8B99
  3
INSUNITS
350
8B9F
  3
LAYOUTDICT
350
8B9B
  3
LWETCUNION
350
8B9E
  3
PLOTSETDICT
350
8B9C
  3
PLOTSTYLNAMDICT
350
8B9D
  3
PSVPSCALE
350
8BA3
  3
PUCSBASE
350
8BA7
  3
PUCSORGBACK
350
8BAD
  3
PUCSORGBOTTOM
350
8BA9
  3
PUCSORGFRONT
350
8BAC
  3
PUCSORGLEFT
350
8BAA
  3
PUCSORGRIGHT
350
8BAB
  3
PUCSORGTOP
350
8BA8
  3
PUCSORTHOREF
350
8BA5
  3
PUCSORTHOVIEW
350
8BA6
  3
STYLESHEET
350
8B9A
  3
TSTACKALIGN
350
8B97
  3
TSTACKSIZE
350
8B98
  3
UCSBASE
350
8BB0
  3
UCSORGBACK
350
8BB6
  3
UCSORGBOTTOM
350
8BB2
  3
UCSORGFRONT
350
8BB5
  3
UCSORGLEFT
350
8BB3
  3
UCSORGRIGHT
350
8BB4
  3
UCSORGTOP
350
8BB1
  3
UCSORTHOREF
350
8BAE
  3
UCSORTHOVIEW
350
8BAF
  3
VERSIONGUID
350
8BA2
  0
DICTIONARY
  5
69C9
102
{ACAD_REACTORS
330
C
102
}
330
C
100
AcDbDictionary
  3
DIMASSOC
350
69CA
  0
XRECORD
  5
8BB8
102
{ACAD_REACTORS
330
178
102
}
330
178
100
AcDbXrecord
340
1E
  0
XRECORD
  5
8BB7
102
{ACAD_REACTORS
330
17A
102
}
330
17A
100
AcDbXrecord
340
1A
  0
MLINESTYLE
  5
17
102
{ACAD_REACTORS
330
16
102
}
330
16
100
AcDbMlineStyle
  2
STANDARD
 70
     0
  3

 62
   256
 51
90.0
 52
90.0
 71
     2
 49
0.5
 62
   256
  6
BYLAYER
 49
-0.5
 62
   256
  6
BYLAYER
  0
ACDBPLACEHOLDER
  5
F
102
{ACAD_REACTORS
330
E
102
}
330
E
100
AcDbPlaceHolder
280
     0
  0
XRECORD
  5
8BA0
102
{ACAD_REACTORS
330
8B96
102
}
330
8B96
100
AcDbXrecord
 90
        0
  0
XRECORD
  5
8BA4
102
{ACAD_REACTORS
330
8B96
102
}
330
8B96
100
AcDbXrecord
1000
DSTYLE
1002
{
1070
    79
 70
     3
1070
   341
340
3B2
1070
   342
340
3B2
1002
}
  0
XRECORD
  5
8BA1
102
{ACAD_REACTORS
330
8B96
102
}
330
8B96
100
AcDbXrecord
  1

  0
XRECORD
  5
8B99
102
{ACAD_REACTORS
330
8B96
102
}
330
8B96
100
AcDbXrecord
  1

  0
XRECORD
  5
8B9F
102
{ACAD_REACTORS
330
8B96
102
}
330
8B96
100
AcDbXrecord
 90
        0
  0
XRECORD
  5
8B9B
102
{ACAD_REACTORS
330
8B96
102
}
330
8B96
100
AcDbXrecord
340
19
  0
XRECORD
  5
8B9E
102
{ACAD_REACTORS
330
8B96
102
}
330
8B96
100
AcDbXrecord
 90
    10781
  0
XRECORD
  5
8B9C
102
{ACAD_REACTORS
330
8B96
102
}
330
8B96
100
AcDbXrecord
340
18
  0
XRECORD
  5
8B9D
102
{ACAD_REACTORS
330
8B96
102
}
330
8B96
100
AcDbXrecord
340
E
  0
XRECORD
  5
8BA3
102
{ACAD_REACTORS
330
8B96
102
}
330
8B96
100
AcDbXrecord
 40
0.0
  0
XRECORD
  5
8BA7
102
{ACAD_REACTORS
330
8B96
102
}
330
8B96
100
AcDbXrecord
340
0
  0
XRECORD
  5
8BAD
102
{ACAD_REACTORS
330
8B96
102
}
330
8B96
100
AcDbXrecord
 10
0.0
 20
0.0
 30
0.0
  0
XRECORD
  5
8BA9
102
{ACAD_REACTORS
330
8B96
102
}
330
8B96
100
AcDbXrecord
 10
0.0
 20
0.0
 30
0.0
  0
XRECORD
  5
8BAC
102
{ACAD_REACTORS
330
8B96
102
}
330
8B96
100
AcDbXrecord
 10
0.0
 20
0.0
 30
0.0
  0
XRECORD
  5
8BAA
102
{ACAD_REACTORS
330
8B96
102
}
330
8B96
100
AcDbXrecord
 10
0.0
 20
0.0
 30
0.0
  0
XRECORD
  5
8BAB
102
{ACAD_REACTORS
330
8B96
102
}
330
8B96
100
AcDbXrecord
 10
0.0
 20
0.0
 30
0.0
  0
XRECORD
  5
8BA8
102
{ACAD_REACTORS
330
8B96
102
}
330
8B96
100
AcDbXrecord
 10
0.0
 20
0.0
 30
0.0
  0
XRECORD
  5
8BA5
102
{ACAD_REACTORS
330
8B96
102
}
330
8B96
100
AcDbXrecord
340
0
  0
XRECORD
  5
8BA6
102
{ACAD_REACTORS
330
8B96
102
}
330
8B96
100
AcDbXrecord
 70
     0
  0
XRECORD
  5
8B9A
102
{ACAD_REACTORS
330
8B96
102
}
330
8B96
100
AcDbXrecord
  1
KIKI.ctb
  0
XRECORD
  5
8B97
102
{ACAD_REACTORS
330
8B96
102
}
330
8B96
100
AcDbXrecord
 90
        1
  0
XRECORD
  5
8B98
102
{ACAD_REACTORS
330
8B96
102
}
330
8B96
100
AcDbXrecord
 90
       70
  0
XRECORD
  5
8BB0
102
{ACAD_REACTORS
330
8B96
102
}
330
8B96
100
AcDbXrecord
340
0
  0
XRECORD
  5
8BB6
102
{ACAD_REACTORS
330
8B96
102
}
330
8B96
100
AcDbXrecord
 10
0.0
 20
0.0
 30
0.0
  0
XRECORD
  5
8BB2
102
{ACAD_REACTORS
330
8B96
102
}
330
8B96
100
AcDbXrecord
 10
0.0
 20
0.0
 30
0.0
  0
XRECORD
  5
8BB5
102
{ACAD_REACTORS
330
8B96
102
}
330
8B96
100
AcDbXrecord
 10
0.0
 20
0.0
 30
0.0
  0
XRECORD
  5
8BB3
102
{ACAD_REACTORS
330
8B96
102
}
330
8B96
100
AcDbXrecord
 10
0.0
 20
0.0
 30
0.0
  0
XRECORD
  5
8BB4
102
{ACAD_REACTORS
330
8B96
102
}
330
8B96
100
AcDbXrecord
 10
0.0
 20
0.0
 30
0.0
  0
XRECORD
  5
8BB1
102
{ACAD_REACTORS
330
8B96
102
}
330
8B96
100
AcDbXrecord
 10
0.0
 20
0.0
 30
0.0
  0
XRECORD
  5
8BAE
102
{ACAD_REACTORS
330
8B96
102
}
330
8B96
100
AcDbXrecord
340
0
  0
XRECORD
  5
8BAF
102
{ACAD_REACTORS
330
8B96
102
}
330
8B96
100
AcDbXrecord
 70
     0
  0
XRECORD
  5
8BA2
102
{ACAD_REACTORS
330
8B96
102
}
330
8B96
100
AcDbXrecord
  1
{26B1876C-6649-4BF4-83D3-1ACFDF23A187}
  0
DICTIONARYVAR
  5
69CA
102
{ACAD_REACTORS
330
69C9
102
}
330
69C9
100
DictionaryVariables
280
     0
  1
1
  0
ENDSEC
  0
EOF
